<?xml version="1.0" standalone="no"?>
<!DOCTYPE svg PUBLIC "-//W3C//DTD SVG 1.1//EN" "http://www.w3.org/Graphics/SVG/1.1/DTD/svg11.dtd" >
<svg xmlns="http://www.w3.org/2000/svg">
<metadata></metadata>
<defs>
<font id="museo_slab500" horiz-adv-x="555" >
<font-face units-per-em="1000" ascent="750" descent="-250" />
<missing-glyph horiz-adv-x="250" />
<glyph unicode="&#xfb01;" horiz-adv-x="678" d="M48 0v75h79v356h-84v75h84v25q0 57 19 96t50.5 56t58 23.5t54.5 6.5l46 -3v-80q-13 3 -36 3q-95 0 -95 -100v-27h344v-431h79v-75h-256v75h80v356h-247v-356h93v-75h-269zM468 607v99h102v-99h-102z" />
<glyph unicode="&#xfb02;" horiz-adv-x="660" d="M48 0v75h79v356h-84v75h84v15q0 56 20.5 97t55.5 62.5t74 31.5t85 10q47 0 94 -6t70 -12l23 -7v-547q0 -36 11.5 -54t45.5 -18l23 1v-80q-20 -2 -43 -2q-62 0 -98 32.5t-36 114.5v491q-32 10 -93 10q-59 0 -97 -28.5t-38 -92.5v-18h122v-75h-122v-356h93v-75h-269z" />
<glyph unicode="&#xfb03;" horiz-adv-x="1021" d="M48 0v75h79v356h-84v75h84v25q0 57 19 96t50.5 56t58 23.5t54.5 6.5l46 -3v-80q-13 3 -36 3q-95 0 -95 -100v-27h247v25q0 57 19 96t50 56t57.5 23.5t54.5 6.5l47 -3v-80q-13 3 -37 3q-94 0 -94 -100v-27h343v-431h80v-75h-256v75h80v356h-247v-356h93v-75h-270v75h80 v356h-247v-356h93v-75h-269zM812 607v99h102v-99h-102z" />
<glyph unicode="&#xfb04;" horiz-adv-x="1003" d="M48 0v75h79v356h-84v75h84v25q0 46 13.5 81t32.5 53.5t46 30t48 14.5t43 3l45 -3v-80q-13 3 -35 3q-96 0 -96 -100v-27h247v15q0 56 20 97t55 62.5t74.5 31.5t85.5 10q47 0 93.5 -6t69.5 -12l23 -7v-547q0 -36 12 -54t46 -18l23 1l-1 -80q-19 -2 -42 -2q-62 0 -98.5 32.5 t-36.5 114.5v491q-31 10 -92 10q-59 0 -97 -28.5t-38 -92.5v-18h122v-75h-122v-356h93v-75h-270v75h80v356h-247v-356h93v-75h-269z" />
<glyph horiz-adv-x="0" />
<glyph horiz-adv-x="333" />
<glyph unicode=" "  horiz-adv-x="250" />
<glyph unicode="&#x09;" horiz-adv-x="250" />
<glyph unicode="&#xa0;" horiz-adv-x="250" />
<glyph unicode="!" horiz-adv-x="247" d="M80 194l-7 512h100l-6 -512h-87zM74 0v98h100v-98h-100z" />
<glyph unicode="&#x22;" horiz-adv-x="344" d="M204 506v212h76v-212h-76zM64 506v212h76v-212h-76z" />
<glyph unicode="#" horiz-adv-x="717" d="M139 0l34 191h-131l12 74h131l30 168h-130l12 73h130l35 200h81l-35 -200h155l35 200h82l-35 -200h130l-12 -73h-131l-30 -168h130l-12 -74h-130l-33 -191h-82l34 191h-155l-34 -191h-81zM266 265h155l30 168h-155z" />
<glyph unicode="$" horiz-adv-x="543" d="M42 96l54 71q3 -3 9 -8t25 -18.5t39 -23.5t49 -18t58 -8q53 0 88.5 28.5t35.5 75.5q0 38 -35.5 65t-86.5 46t-102 42t-86.5 65.5t-35.5 102.5q0 70 51.5 121t134.5 63v109h71v-108q50 -4 92.5 -21t60.5 -32l18 -16l-43 -77q-8 7 -21.5 17t-54 27t-79.5 17 q-58 0 -94 -27.5t-36 -70.5q0 -34 25.5 -60t64 -40.5t83.5 -34t83.5 -39t64 -56.5t25.5 -87q0 -76 -51.5 -131t-137.5 -65v-107h-71v107q-36 4 -69.5 14.5t-56 23t-39.5 25t-25 20.5z" />
<glyph unicode="%" horiz-adv-x="750" d="M194 422q-63 0 -107 43t-44 105q0 61 44 104.5t107 43.5t107.5 -43.5t44.5 -104.5t-44.5 -104.5t-107.5 -43.5zM58 0l540 706h94l-540 -706h-94zM194 496q32 0 53 21t21 53q0 31 -21.5 53t-52.5 22t-52.5 -22t-21.5 -53q0 -32 21 -53t53 -21zM405 136q0 61 44.5 104.5 t107.5 43.5q62 0 106.5 -43.5t44.5 -104.5t-44.5 -104.5t-106.5 -43.5q-64 0 -108 43t-44 105zM483 136q0 -32 21.5 -53t52.5 -21t52.5 21.5t21.5 52.5t-21.5 53t-52.5 22t-52.5 -22t-21.5 -53z" />
<glyph unicode="&#x26;" horiz-adv-x="675" d="M49 197q0 62 34.5 112.5t93.5 69.5v2q-4 1 -10.5 4t-23.5 15t-30 28t-23.5 45t-10.5 63q0 85 63 133.5t163 48.5q19 0 41 -3t34 -5l13 -3l-25 -79q-29 6 -53 6q-59 0 -97 -29t-38 -79q0 -20 5.5 -37.5t18.5 -35.5t40.5 -29t66.5 -11h150v98h97v-98h93v-82h-93v-96 q0 -117 -68 -182t-185 -65q-114 0 -185 59.5t-71 149.5zM150 205q0 -56 42 -92t113 -36q73 0 114.5 40.5t41.5 121.5v92h-155q-75 0 -115.5 -33.5t-40.5 -92.5z" />
<glyph unicode="'" horiz-adv-x="205" d="M64 506v212h77v-212h-77z" />
<glyph unicode="(" horiz-adv-x="314" d="M185 -95q-116 193 -116 435q0 210 116 395h85q-113 -189 -113 -396q0 -232 113 -434h-85z" />
<glyph unicode=")" horiz-adv-x="314" d="M44 -95q113 205 113 434q0 207 -113 396h85q116 -185 116 -395q0 -242 -116 -435h-85z" />
<glyph unicode="*" horiz-adv-x="479" d="M161 329l-72 52l89 110v2l-137 37l27 84l133 -50l-8 142h91l-8 -142l134 50l28 -84l-138 -37v-2l89 -110l-72 -52l-77 118h-2z" />
<glyph unicode="+" horiz-adv-x="613" d="M42 246v78h224v246h82v-246h223v-78h-223v-246h-82v246h-224z" />
<glyph unicode="," horiz-adv-x="261" d="M20 -124l70 229h102l-95 -229h-77z" />
<glyph unicode="-" horiz-adv-x="476" d="M92 242v86h292v-86h-292z" />
<glyph unicode="." horiz-adv-x="256" d="M76 0v105h104v-105h-104z" />
<glyph unicode="/" horiz-adv-x="424" d="M41 -42l255 786h86l-255 -786h-86z" />
<glyph unicode="0" horiz-adv-x="620" d="M310 -12q-250 0 -250 366q0 364 250 364q68 0 118 -28t78 -78.5t41 -114t13 -143.5t-13 -144t-41 -115t-78 -79t-118 -28zM310 77q148 0 148 277q0 276 -148 276t-148 -276q0 -277 148 -277z" />
<glyph unicode="1" horiz-adv-x="479" d="M51 0v82h156v460l1 43h-2q-8 -15 -34 -40l-66 -65l-60 62l169 164h88v-624h154v-82h-406z" />
<glyph unicode="2" horiz-adv-x="586" d="M54 0q-5 32 -5 54q0 51 19.5 95t50.5 75.5t68 60t74.5 53.5t68.5 50t50.5 56.5t19.5 66.5q0 54 -35 86.5t-92 32.5q-41 0 -77.5 -23.5t-52.5 -46.5l-16 -24l-70 48q3 5 8 14.5t25 32.5t43 40.5t63 32t85 14.5q98 0 160.5 -56t62.5 -147q0 -46 -19 -86t-49.5 -69.5 t-67.5 -56.5t-74 -51.5t-67.5 -49t-50 -55.5t-19.5 -65h288v94h87v-176h-478z" />
<glyph unicode="3" horiz-adv-x="570" d="M69 534v172h431v-69l-187 -220q78 -8 139 -58.5t61 -143.5q0 -94 -67.5 -160.5t-174.5 -66.5q-41 0 -79.5 10t-64.5 24t-46 28t-29 24l-10 10l52 71l8.5 -8.5t23 -19t36.5 -23.5t47.5 -18.5t56.5 -8.5q60 0 102.5 38t42.5 96q0 61 -44.5 96t-111.5 35q-32 0 -42 -2 l-23 52l172 207q5 6 11.5 12.5l10.5 10.5l5 3v2q-22 -3 -36 -3h-197v-90h-87z" />
<glyph unicode="4" horiz-adv-x="599" d="M26 189v62l327 455h112v-437h96v-80h-96v-189h-97v189h-342zM344 553l-210 -282v-2h234v277l5 54h-3q-11 -25 -26 -47z" />
<glyph unicode="5" horiz-adv-x="564" d="M42 79l52 70q7 -8 19.5 -20t54.5 -32t87 -20q67 0 113 42t46 102q0 66 -44 106t-116 40q-33 0 -64 -9t-46 -18l-14 -9l-58 21l35 354h365v-172h-87v90h-192l-18 -169l-5 -28h2q39 22 100 22q108 0 176 -64t68 -160q0 -100 -73 -168.5t-183 -68.5q-40 0 -77 9.5 t-61.5 22.5t-43.5 26.5t-28 23.5z" />
<glyph unicode="6" horiz-adv-x="597" d="M320 -12q-116 0 -190 91t-74 239q0 73 19.5 142t57 127.5t101 94.5t143.5 36q36 0 69.5 -7t49.5 -15l16 -7l-31 -83q-45 24 -102 24q-91 0 -145.5 -70.5t-67.5 -169.5h2q23 30 67 48.5t93 18.5q98 0 161 -66.5t63 -164.5q0 -104 -66 -171t-166 -67zM160 266 q0 -67 46 -128t113 -61q61 0 96.5 41.5t35.5 107.5t-40 107t-111 41q-58 0 -99 -32.5t-41 -75.5z" />
<glyph unicode="7" horiz-adv-x="543" d="M103 0l292 590q5 10 10.5 19t8.5 13l3 3v2q-18 -3 -41 -3h-249v-90h-87v172h484v-68l-319 -638h-102z" />
<glyph unicode="8" horiz-adv-x="600" d="M54 199q0 112 114 192q-86 57 -86 142q0 76 57.5 130.5t162.5 54.5q100 0 162 -51t62 -135q0 -44 -20 -89t-35 -63.5t-29 -32.5q101 -59 101 -153q0 -84 -67.5 -145t-174.5 -61q-106 0 -176.5 60t-70.5 151zM180 532q0 -17 5 -31.5t16.5 -27t22 -21t31.5 -19.5 t33.5 -16.5t40 -17t39.5 -16.5q61 72 61 138q0 52 -34.5 81.5t-92.5 29.5q-57 0 -89.5 -28.5t-32.5 -71.5zM154 209q0 -59 43 -96.5t103 -37.5q57 0 99.5 34t42.5 85q0 20 -8.5 37t-19 28.5t-34 24.5t-40 20.5t-50 22t-52.5 22.5q-84 -63 -84 -140z" />
<glyph unicode="9" horiz-adv-x="597" d="M45 481q0 104 66 170.5t167 66.5q116 0 189.5 -91.5t73.5 -238.5q0 -72 -19.5 -141t-57 -128t-101 -95t-143.5 -36q-36 0 -70 7t-50 15l-16 7l31 84q45 -24 103 -24q92 0 146.5 70.5t67.5 169.5h-2q-23 -29 -67.5 -46.5t-93.5 -17.5q-98 0 -161 65.5t-63 162.5zM147 481 q0 -64 39.5 -104.5t108.5 -40.5q58 0 100 32t42 75q0 67 -47 127t-112 60q-60 0 -95.5 -42t-35.5 -107z" />
<glyph unicode=":" horiz-adv-x="298" d="M97 0v105h104v-105h-104zM97 401v105h104v-105h-104z" />
<glyph unicode=";" horiz-adv-x="299" d="M102 401v105h102v-105h-102zM43 -124l61 229h102l-85 -229h-78z" />
<glyph unicode="&#x3c;" horiz-adv-x="613" d="M58 252v66l466 208v-89l-357 -151v-2l357 -151v-89z" />
<glyph unicode="=" horiz-adv-x="613" d="M68 340v78h477v-78h-477zM68 151v78h477v-78h-477z" />
<glyph unicode="&#x3e;" horiz-adv-x="613" d="M88 44v89l358 151v2l-358 151v89l467 -208v-66z" />
<glyph unicode="?" horiz-adv-x="469" d="M148 194v47q0 42 17.5 76.5t42.5 58.5t50 46t42.5 49.5t17.5 58.5q0 42 -32.5 70.5t-81.5 28.5q-28 0 -56.5 -10.5t-43.5 -20.5l-14 -11l-54 69q7 7 21 17.5t60 28.5t94 18q87 0 148 -51t61 -132q0 -46 -18 -82.5t-44 -61t-52.5 -47t-44.5 -50.5t-18 -61v-41h-95zM145 0 v98h101v-98h-101z" />
<glyph unicode="@" horiz-adv-x="787" d="M43 242q0 156 106.5 262.5t271.5 106.5q122 0 184.5 -58.5t62.5 -144.5v-283h72v-73h-273q-91 0 -149 55.5t-58 133.5q0 77 57.5 132t149.5 55h108q-1 43 -44 73t-113 30q-119 0 -198.5 -85.5t-79.5 -205.5t80 -203t204 -83v-79q-166 0 -273.5 105.5t-107.5 261.5z M358 241q0 -48 33.5 -82t83.5 -34h100v236h-98q-52 0 -85.5 -35t-33.5 -85z" />
<glyph unicode="A" horiz-adv-x="721" d="M11 0v78h68l225 628h113l225 -628h68v-78h-245v78h75l-55 157h-250l-55 -157h76v-78h-245zM260 315h200l-86 245q-4 13 -7 26.5t-4 20.5l-1 7h-3q-3 -25 -12 -54z" />
<glyph unicode="B" horiz-adv-x="680" d="M53 0v78h88v551h-88v77h321q78 0 124 -21q43 -19 70 -61.5t27 -97.5q0 -51 -23.5 -91t-65.5 -61v-2q56 -16 86.5 -62.5t30.5 -108.5q0 -68 -36.5 -118.5t-93.5 -69.5q-40 -13 -106 -13h-334zM241 409h148q48 0 76 30t28 78q0 67 -46 93q-28 14 -73 14h-133v-215zM241 82 h150q39 0 63 10q31 13 49 43.5t18 70.5q0 55 -33.5 88t-88.5 33h-158v-245z" />
<glyph unicode="C" horiz-adv-x="744" d="M49 357q0 155 103.5 258t257.5 103q36 0 78.5 -7t87 -21.5t74 -44t29.5 -67.5v-86h-93v55q0 29 -30.5 49t-67.5 28t-74 8q-114 0 -188 -76t-74 -195q0 -125 76 -205.5t192 -80.5q32 0 69 6.5t72 26.5t35 50v55h93v-86q0 -37 -28.5 -65.5t-73 -43.5t-89 -22.5t-84.5 -7.5 q-158 0 -261.5 106.5t-103.5 262.5z" />
<glyph unicode="D" horiz-adv-x="779" d="M53 0v78h88v551h-88v77h301q93 0 150 -17q103 -32 163 -120.5t60 -215.5t-59 -214t-164 -120q-58 -19 -149 -19h-302zM241 82h108q74 0 120 18q72 25 113 91t41 162t-40.5 162.5t-112.5 92.5q-45 16 -121 16h-108v-542z" />
<glyph unicode="E" horiz-adv-x="632" d="M53 0v78h88v551h-88v77h511v-164h-87v82h-236v-227h250v-82h-250v-233h253v85h87v-167h-528z" />
<glyph unicode="F" horiz-adv-x="577" d="M53 0v78h88v551h-88v77h489v-167h-87v81h-214v-234h244v-82h-244v-226h96v-78h-284z" />
<glyph unicode="G" horiz-adv-x="766" d="M49 355q0 158 103 260.5t267 102.5q64 0 125 -15.5t103.5 -48.5t42.5 -75v-87h-92v52q0 41 -53.5 64.5t-122.5 23.5q-123 0 -196 -75.5t-73 -198.5q0 -124 74.5 -203.5t197.5 -79.5q38 0 78 7t75.5 28t35.5 53v93h-138v78h230v-198q0 -39 -29.5 -69t-75.5 -46.5 t-93 -24.5t-90 -8q-162 0 -265.5 104.5t-103.5 262.5z" />
<glyph unicode="H" horiz-adv-x="848" d="M53 0v78h88v551h-88v77h277v-77h-89v-235h366v235h-89v77h277v-77h-88v-551h88v-78h-277v78h89v234h-366v-234h89v-78h-277z" />
<glyph unicode="I" horiz-adv-x="382" d="M53 0v78h88v551h-88v77h277v-77h-89v-551h89v-78h-277z" />
<glyph unicode="J" d="M24 197v41h97v-31q0 -56 27 -93t82 -37q47 0 77 31.5t30 98.5v422h-102v77h281v-77h-79v-428q0 -106 -61.5 -159.5t-146.5 -53.5t-145 52t-60 157z" />
<glyph unicode="K" horiz-adv-x="692" d="M53 0v78h88v551h-88v77h265v-77h-77v-222h91l154 222h-65v77h239v-77h-68l-183 -255v-2q20 -9 40 -47l127 -221q15 -26 50 -26h33v-78h-71q-42 0 -61.5 11t-36.5 42l-136 244q-17 28 -55 28h-58v-247h87v-78h-275z" />
<glyph unicode="L" horiz-adv-x="604" d="M54 0v78h88v546h-88v82h277v-82h-89v-542h246v114h88v-196h-522z" />
<glyph unicode="M" horiz-adv-x="958" d="M38 0v78h88l45 551h-90v77h200l181 -430l16 -51h2q5 22 16 51l181 430h200v-77h-90l45 -551h88v-78h-272v78h85l-32 422l3 58h-3q-8 -34 -16 -54l-162 -371h-88l-162 371l-16 54h-3l3 -58l-32 -422h85v-78h-272z" />
<glyph unicode="N" horiz-adv-x="838" d="M53 0v78h88v551h-88v77h187l347 -506l24 -51h3q-5 35 -5 57v423h-90v77h279v-77h-89v-629h-98l-347 506q-6 9 -12 21.5t-9 20.5l-3 9h-3l4 -57v-422h91v-78h-279z" />
<glyph unicode="O" horiz-adv-x="822" d="M48 358q0 152 104.5 256t258.5 104q153 0 258 -104t105 -256q0 -156 -105 -263t-258 -107q-154 0 -258.5 107t-104.5 263zM151 358q0 -119 75.5 -200t184.5 -81q108 0 183.5 81t75.5 200q0 115 -75.5 193.5t-183.5 78.5q-109 0 -184.5 -78.5t-75.5 -193.5z" />
<glyph unicode="P" horiz-adv-x="653" d="M53 0v78h88v551h-88v77h329q79 0 121 -19q55 -23 87.5 -76.5t32.5 -123.5q0 -74 -36 -130t-97 -77q-41 -15 -106 -15h-143v-187h89v-78h-277zM241 347h131q45 0 79 14q71 32 71 126q0 87 -63 120q-31 17 -86 17h-132v-277z" />
<glyph unicode="Q" horiz-adv-x="825" d="M49 357q0 153 104 257t259 104t259.5 -101.5t104.5 -254.5q0 -137 -85 -238l84 -80l-57 -62l-83 83q-94 -77 -224 -77q-153 0 -257.5 107t-104.5 262zM152 357q0 -118 75 -199t185 -81q92 0 154 53l-104 103l57 61l103 -104q53 76 53 168q0 115 -76 193.5t-187 78.5 q-110 0 -185 -78t-75 -195z" />
<glyph unicode="R" horiz-adv-x="702" d="M53 0v78h88v551h-88v77h306q85 0 130 -15q57 -19 90 -66t33 -117q0 -76 -39 -128.5t-107 -69.5v-2q18 -10 30 -33l100 -174q13 -23 49 -23h21v-78h-60q-44 0 -61.5 10t-36.5 43l-109 193q-14 23 -28.5 31t-45.5 8h-84v-207h87v-78h-275zM241 367h142q58 0 93 35.5 t35 97.5q0 84 -66 111q-33 13 -87 13h-117v-257z" />
<glyph unicode="S" horiz-adv-x="578" d="M53 212h92v-52q0 -38 41.5 -60.5t99.5 -22.5q63 0 101.5 28.5t38.5 79.5q0 36 -25.5 64t-50 40t-79.5 33l-15 6q-44 17 -70 29.5t-57 35.5t-46 56.5t-15 78.5q0 94 64.5 142t161.5 48q86 0 150 -31t64 -86v-83h-93v49q0 29 -37 46t-84 17q-54 0 -89 -25t-35 -72 q0 -22 9 -40t19.5 -29t35.5 -24t38.5 -18.5t47.5 -18.5q41 -15 63 -24.5t54 -28.5t48.5 -38t29 -50t12.5 -69q0 -97 -69 -151t-172 -54q-91 0 -162 39.5t-71 110.5v74z" />
<glyph unicode="T" horiz-adv-x="664" d="M193 0v78h89v546h-166v-110h-87v192h606v-192h-87v110h-166v-546h89v-78h-278z" />
<glyph unicode="U" horiz-adv-x="797" d="M120 263v366h-89v77h278v-77h-89v-365q0 -72 27 -115q45 -72 152 -72t152 74q27 46 27 114v364h-89v77h277v-77h-88v-366q0 -102 -49 -172q-35 -50 -96 -76.5t-134 -26.5q-75 0 -135.5 27t-96.5 76q-47 64 -47 172z" />
<glyph unicode="V" horiz-adv-x="714" d="M304 0l-223 629h-69v77h252v-77h-78l158 -465l12 -55h3q4 30 12 55l158 465h-78v77h252v-77h-70l-223 -629h-106z" />
<glyph unicode="W" horiz-adv-x="1009" d="M16 629v77h251v-77h-84l110 -463l8 -53h3q4 28 10 53l148 540h85l147 -540l10 -53h4q2 28 7 53l110 463h-84v77h252v-77h-68l-158 -629h-114l-138 501l-9 56h-4q-2 -31 -9 -56l-138 -501h-114l-157 629h-68z" />
<glyph unicode="X" horiz-adv-x="669" d="M30 0v78h66l182 279l-179 272h-65v77h246v-77h-75l117 -185l18 -28h2q6 13 17 28l113 185h-73v77h239v-77h-66l-183 -281l180 -270h67v-78h-246v78h74l-118 184l-18 29h-2l-2 -3q-2 -4 -6 -11.5t-8 -14.5l-114 -184h74v-78h-240z" />
<glyph unicode="Y" horiz-adv-x="650" d="M186 0v78h89v221l-198 330h-67v77h243v-77h-74l131 -222l14 -30h2q6 15 15 30l131 222h-73v77h241v-77h-67l-198 -330v-221h89v-78h-278z" />
<glyph unicode="Z" horiz-adv-x="632" d="M54 0v66l364 525l29 34v2q-20 -3 -40 -3h-261v-110h-87v192h509v-65l-364 -526l-29 -34v-2q20 3 40 3h276v114h87v-196h-524z" />
<glyph unicode="[" horiz-adv-x="311" d="M97 -95v830h165v-73h-80v-683h80v-74h-165z" />
<glyph unicode="\" horiz-adv-x="423" d="M297 -42l-255 786h86l254 -786h-85z" />
<glyph unicode="]" horiz-adv-x="312" d="M49 -21h81v683h-81v73h166v-830h-166v74z" />
<glyph unicode="^" horiz-adv-x="613" d="M69 247l200 459h63l200 -459h-88l-144 352l-143 -352h-88z" />
<glyph unicode="_" horiz-adv-x="557" d="M10 0h537v-78h-537v78z" />
<glyph unicode="`" horiz-adv-x="499" d="M263 755l-124 127h112l103 -127h-91z" />
<glyph unicode="a" d="M33 141q0 38 15.5 67.5t43 47.5t57 29.5t66.5 17t61.5 7t51.5 1.5h32v19q0 108 -108 108q-36 0 -72 -12t-54 -24l-19 -13l-39 69q3 2 8.5 6.5t25 14.5t40 18t53 14.5t65.5 6.5q97 0 147 -49.5t50 -145.5v-226q0 -22 22 -22h51v-75h-101q-63 0 -63 55v7l4 33h-2 q-2 -4 -5.5 -11.5t-18 -26t-31.5 -32.5t-47.5 -25.5t-64.5 -11.5q-69 0 -118.5 40t-49.5 113zM131 149q0 -36 24.5 -61t66.5 -25q61 0 100 51t39 113v21h-25q-205 0 -205 -99z" />
<glyph unicode="b" horiz-adv-x="609" d="M85 0v631h-85v75h182v-234l-3 -42h2q2 4 5.5 9.5t18 21t31.5 27t46 21t62 9.5q102 0 162.5 -73t60.5 -192t-64.5 -192t-166.5 -73q-33 0 -61.5 9.5t-45.5 23t-30 27t-18 22.5l-5 10h-2q3 -18 3 -40v-40h-92zM179 251q0 -73 37.5 -126t106.5 -53q62 0 103.5 48.5 t41.5 131.5q0 82 -39.5 131.5t-103.5 49.5q-62 0 -104 -45.5t-42 -136.5z" />
<glyph unicode="c" horiz-adv-x="553" d="M40 252q0 115 77 190.5t191 75.5q31 0 63 -6t63.5 -18.5t51.5 -36t20 -54.5v-62h-86v35q0 27 -35 42.5t-74 15.5q-77 0 -124.5 -49.5t-47.5 -130.5q0 -84 51 -133t127 -49q39 0 78.5 16t50.5 24t33 25l37 -71q-85 -78 -203 -78q-114 0 -193.5 72.5t-79.5 191.5z" />
<glyph unicode="d" horiz-adv-x="629" d="M42 253q0 120 63.5 192.5t166.5 72.5q32 0 60 -9t45 -21t29 -24.5t17 -21.5l5 -9h2q-3 16 -3 38v160h-84v75h181v-609q0 -22 22 -22h51v-75h-101q-63 0 -63 55v7l3 27h-2l-5.5 -11t-17.5 -24.5t-31.5 -30.5t-49 -24t-67.5 -11q-101 0 -161 73t-60 192zM141 253 q0 -82 39.5 -131.5t103.5 -49.5q61 0 103.5 45.5t42.5 134.5q0 75 -37.5 128t-105.5 53q-63 0 -104.5 -48t-41.5 -132z" />
<glyph unicode="e" d="M41 253q0 119 71.5 192t181.5 73q104 0 161.5 -67t57.5 -170l-3 -37h-370q4 -81 54 -126.5t121 -45.5q39 0 77 14t56 28l18 15l40 -71q-9 -8 -24.5 -19.5t-67 -31t-105.5 -19.5q-118 0 -193 75.5t-75 189.5zM144 306h269q-2 64 -36.5 99.5t-84.5 35.5q-56 0 -97 -36 t-51 -99z" />
<glyph unicode="f" horiz-adv-x="375" d="M48 0v75h79v356h-84v75h84v25q0 57 19 96t50.5 56t58 23.5t54.5 6.5l46 -3v-80q-13 3 -36 3q-95 0 -95 -100v-27h122v-75h-122v-356h93v-75h-269z" />
<glyph unicode="g" horiz-adv-x="626" d="M121 -94q63 -34 139 -34q71 0 115.5 35t44.5 109v40l3 32h-2q-49 -82 -152 -82t-164.5 73.5t-61.5 185.5t59.5 182.5t162.5 70.5q53 0 98.5 -21t65.5 -62h2q-2 7 -2 20q0 51 58 51h108v-75h-56q-22 0 -22 -20v-390q0 -60 -21.5 -106t-58.5 -72.5t-81 -39.5t-94 -13 q-89 0 -173 42zM288 90q59 0 96.5 41t37.5 133q0 170 -143 170q-65 0 -101 -44.5t-36 -122.5q0 -80 39.5 -128.5t106.5 -48.5z" />
<glyph unicode="h" horiz-adv-x="674" d="M32 0v75h80v556h-85v75h181v-262l-3 -42h2q20 44 70 80t119 36q174 0 174 -194v-249h79v-75h-176v302q0 61 -20 94t-76 33q-74 0 -121.5 -55t-47.5 -137v-162h80v-75h-256z" />
<glyph unicode="i" horiz-adv-x="336" d="M125 607v99h102v-99h-102zM48 0v75h79v356h-84v75h181v-431h80v-75h-256z" />
<glyph unicode="j" horiz-adv-x="296" d="M112 607v99h102v-99h-102zM-16 -125q9 -1 22 -1t25.5 2t28 9t27 19t19.5 33.5t8 50.5v443h-85v75h182v-521q0 -48 -14.5 -84.5t-35.5 -56t-49 -31.5t-50 -15.5t-45 -3.5l-33 2v79z" />
<glyph unicode="k" horiz-adv-x="587" d="M32 0v75h80v556h-85v75h181v-394h74l101 119h-66v75h230v-75h-67l-125 -146v-2q1 0 5.5 -2.5t13.5 -13t18 -25.5l86 -147q12 -20 44 -20h32v-75h-76q-35 0 -51 9t-32 38l-100 171q-12 20 -47 20h-40v-163h68v-75h-244z" />
<glyph unicode="l" horiz-adv-x="293" d="M85 144v487h-84v75h181v-556q0 -36 11.5 -54t42.5 -18l27 1l-1 -80q-20 -2 -43 -2q-134 0 -134 147z" />
<glyph unicode="m" horiz-adv-x="1000" d="M48 0v75h79v335q0 21 -22 21h-62v75h114q64 0 64 -56v-26l-3 -29h2q20 48 71 85.5t109 37.5q123 0 148 -119h2q22 50 71.5 84.5t109.5 34.5q165 0 165 -194v-249h80v-75h-177v303q0 61 -18.5 94t-70.5 33q-68 0 -108.5 -58.5t-40.5 -138.5v-158h79v-75h-176v303 q0 60 -17.5 93.5t-70.5 33.5q-68 0 -110 -61t-42 -140v-154h80v-75h-256z" />
<glyph unicode="n" horiz-adv-x="689" d="M48 0v75h79v334q0 22 -22 22h-62v75h114q64 0 64 -56v-26l-3 -29h2q5 13 18 31t35.5 40t60.5 37t83 15q86 0 127 -48t41 -146v-249h80v-75h-177v302q0 61 -19.5 94t-75.5 33q-74 0 -121.5 -57.5t-47.5 -136.5v-160h80v-75h-256z" />
<glyph unicode="o" horiz-adv-x="626" d="M40 254q0 114 79 189t194 75t194 -75t79 -189t-79.5 -190t-193.5 -76t-193.5 76t-79.5 190zM139 254q0 -79 50.5 -130.5t123.5 -51.5q72 0 123 52t51 130t-51 129t-123 51q-73 0 -123.5 -51t-50.5 -129z" />
<glyph unicode="p" horiz-adv-x="637" d="M34 -125h79v534q0 22 -22 22h-62v75h112q62 0 62 -50v-4l-2 -29h2q2 4 5.5 10.5t17.5 22.5t31.5 28.5t48.5 23t67 10.5q101 0 161.5 -73t60.5 -192t-64.5 -192t-164.5 -73q-31 0 -58.5 9t-45 21.5t-30 25t-18.5 21.5l-5 9h-2q3 -18 3 -44v-155h80v-75h-256v75zM208 251 q0 -73 38 -126t105 -53q62 0 104 48.5t42 131.5q0 82 -40 131.5t-104 49.5q-62 0 -103.5 -45.5t-41.5 -136.5z" />
<glyph unicode="q" horiz-adv-x="609" d="M42 253q0 120 64 192.5t165 72.5q93 0 161 -88h2q-2 14 -2 35v41h92v-631h79v-75h-255v75h79v159l3 44h-2q-2 -4 -5.5 -10t-17.5 -21.5t-31 -27.5t-46.5 -21.5t-62.5 -9.5q-102 0 -162.5 73t-60.5 192zM141 253q0 -82 39.5 -131.5t103.5 -49.5q62 0 104 45.5t42 136.5 q0 73 -37.5 126.5t-106.5 53.5q-62 0 -103.5 -49t-41.5 -132z" />
<glyph unicode="r" horiz-adv-x="423" d="M50 0v75h76v334q0 22 -22 22h-63v75h114q65 0 65 -59v-32l-2 -35h2q18 58 60.5 95t99.5 37l25 -2v-96q-12 3 -28 3q-75 0 -114.5 -62.5t-39.5 -145.5v-134h75v-75h-248z" />
<glyph unicode="s" horiz-adv-x="481" d="M40 109v54h85v-33q0 -30 35 -46.5t81 -16.5q44 0 73 17t29 48q0 32 -26 49t-86 38q-9 3 -14 5q-36 13 -57.5 23.5t-48 28.5t-39.5 43.5t-13 58.5q0 69 56 104.5t131 35.5q64 0 119.5 -26t55.5 -76v-61h-85v33q0 23 -26 37.5t-63 14.5q-38 0 -64 -16t-26 -45 q0 -17 8.5 -30.5t28 -24.5t35.5 -17.5t45 -16.5q37 -12 60 -22t51 -28t42 -44t14 -59q0 -70 -57 -109.5t-146 -39.5q-76 0 -137 32.5t-61 88.5z" />
<glyph unicode="t" horiz-adv-x="360" d="M103 185v246h-85v75h87v139h95v-139h121v-75h-121v-237q0 -36 11 -61t29.5 -36t34 -15t33.5 -4l23 1v-81q-14 -2 -35 -2q-23 0 -45 3t-50 15t-48.5 31.5t-35 55.5t-14.5 84z" />
<glyph unicode="u" horiz-adv-x="665" d="M105 182v249h-85v75h182v-304q0 -61 19.5 -93.5t75.5 -32.5q73 0 118.5 59t45.5 138v158h-85v75h182v-410q0 -22 22 -22h53v-74h-105q-64 0 -64 56v22l2 30h-2q-5 -13 -17.5 -30.5t-35 -39t-59.5 -36t-81 -14.5q-166 0 -166 194z" />
<glyph unicode="v" horiz-adv-x="581" d="M9 431v75h227v-75h-65l107 -295l11 -47h3q3 25 11 47l108 295h-65v75h226v-75h-63l-164 -431h-109l-163 431h-64z" />
<glyph unicode="w" horiz-adv-x="856" d="M10 431v75h226v-75h-68l86 -294l8 -47h3q2 26 8 47l111 368h88l111 -368l8 -47h3q2 26 8 47l87 294h-69v75h226v-75h-63l-130 -431h-108l-107 338l-9 48h-2q-3 -25 -9 -48l-107 -338h-108l-130 431h-63z" />
<glyph unicode="x" horiz-adv-x="572" d="M37 0v75h76l121 186l-112 170h-82v75h142l90 -147l17 -33h2q8 17 18 33l92 147h134v-75h-77l-113 -169l125 -187h68v-75h-129l-102 164l-18 32h-2q-7 -16 -18 -33l-100 -163h-132z" />
<glyph unicode="y" horiz-adv-x="590" d="M64 -105q29 -24 72 -24q63 0 93 70l21 50l-177 440h-64v75h231v-75h-67l113 -301l9 -44h3q4 22 12 44l112 301h-65v75h224v-75h-63l-200 -511q-25 -63 -71.5 -96.5t-106.5 -33.5q-29 0 -56 8t-40 16l-13 8z" />
<glyph unicode="z" horiz-adv-x="527" d="M48 64l279 338l28 29v2q-21 -2 -41 -2h-176v-81h-85v156h419v-64l-277 -338l-28 -28v-2q20 1 40 1h187v81h85v-156h-431v64z" />
<glyph unicode="{" horiz-adv-x="337" d="M118 77v96q0 29 -9 50.5t-21 32t-24.5 17t-21.5 7.5l-9 2v86q3 0 9 1t20.5 8t26 18t20.5 33t9 51v84q0 45 12.5 78.5t30 51t42 28.5t42 13.5t35.5 2.5l24 -1v-74h-14q-13 0 -25 -3.5t-27.5 -13t-25 -32t-9.5 -56.5v-103q0 -28 -8.5 -51t-20.5 -36.5t-23.5 -23 t-20.5 -13.5l-8 -3v-2q3 -1 8.5 -3t19.5 -12t24.5 -23t19.5 -36.5t9 -52.5v-115q0 -34 9.5 -56.5t25 -32t27.5 -13t25 -3.5h14v-74q-10 -2 -24 -2q-18 0 -35.5 2.5t-42 13.5t-42 28.5t-30 51.5t-12.5 79z" />
<glyph unicode="|" horiz-adv-x="275" d="M95 -159v951h85v-951h-85z" />
<glyph unicode="}" horiz-adv-x="337" d="M34 -22h14q13 0 24.5 3.5t27 13t25 32t9.5 56.5v115q0 29 8.5 52.5t20 37t23.5 22.5t20 12l9 3v2q-3 1 -8.5 3.5t-19.5 12.5t-24.5 23t-19.5 36.5t-9 51.5v103q0 34 -9.5 56.5t-25 32t-27 13t-24.5 3.5h-14v74q9 1 23 1q18 0 35.5 -2.5t42 -13.5t42 -28.5t30 -51 t12.5 -78.5v-84q0 -29 9 -51t21.5 -33t24.5 -17.5t21 -7.5l9 -2v-86q-3 0 -9 -1t-20.5 -8t-26 -17.5t-20.5 -32t-9 -50.5v-96q0 -45 -12.5 -79t-30 -51.5t-42 -28.5t-42 -13.5t-35.5 -2.5l-23 2v74z" />
<glyph unicode="~" horiz-adv-x="609" d="M67 204q0 85 36.5 127t102.5 42q36 0 64 -15.5t43 -33.5t37.5 -33.5t47.5 -15.5q35 0 51 28t16 66h79q0 -85 -36.5 -127t-103.5 -42q-35 0 -63.5 15t-43.5 33.5t-37.5 33.5t-47.5 15q-35 0 -50.5 -28t-15.5 -65h-79z" />
<glyph unicode="&#xa1;" horiz-adv-x="240" d="M69 408v98h101v-98h-101zM70 -200l6 512h87l7 -512h-100z" />
<glyph unicode="&#xa2;" horiz-adv-x="554" d="M252 -13v86q-97 13 -154 91.5t-57 188.5q0 111 57 189.5t154 91.5v84h71v-84q65 -10 113.5 -50.5t74.5 -104.5l-88 -34q-44 99 -132 99q-71 0 -111 -53.5t-40 -137.5q0 -86 39 -138t112 -52q89 0 132 99l88 -35q-27 -61 -74.5 -104t-113.5 -50v-86h-71z" />
<glyph unicode="&#xa3;" horiz-adv-x="614" d="M43 0v80h86v239h-68v70h68v136q0 83 61.5 138t155.5 55q45 0 86.5 -15.5t61.5 -30.5l19 -16l-55 -68q-50 41 -111 41q-54 0 -86 -31t-32 -77v-132h180v-70h-180v-237h255v114h87v-196h-528z" />
<glyph unicode="&#xa5;" horiz-adv-x="634" d="M104 199v63h163v37l-27 48h-136v63h103l-165 296h113l118 -220l43 -102h2q21 55 43 102l119 220h113l-166 -296h102v-63h-135l-27 -48v-37h162v-63h-162v-199h-100v199h-163z" />
<glyph unicode="&#xa7;" horiz-adv-x="435" d="M137 111l-71 390q-5 19 -5 46q0 75 50.5 123t137.5 48q39 0 74 -13t51 -25l16 -13l-46 -64q-40 34 -95 34q-47 0 -76.5 -26t-29.5 -75q0 -15 5 -40l68 -385h-79zM45 -11l44 67q42 -37 97 -37q46 0 76 27.5t30 77.5q0 25 -6 45l-66 376h79l70 -390q5 -20 5 -45 q0 -76 -51 -124t-137 -48q-39 0 -74 13t-51 25z" />
<glyph unicode="&#xa8;" horiz-adv-x="499" d="M306 781v101h86v-101h-86zM106 781v101h86v-101h-86z" />
<glyph unicode="&#xa9;" horiz-adv-x="802" d="M45 353q0 152 103.5 258.5t251.5 106.5q149 0 253.5 -106.5t104.5 -258.5t-104.5 -258.5t-253.5 -106.5q-148 0 -251.5 106.5t-103.5 258.5zM118 353q0 -125 81.5 -211t200.5 -86q121 0 203 86t82 211t-82 211t-203 86q-119 0 -200.5 -86t-81.5 -211zM210 352 q0 82 54.5 141t142.5 59q32 0 60.5 -10t46.5 -25t31.5 -29.5t18.5 -24.5l6 -10l-61 -33q-4 7 -11.5 17.5t-33 28t-54.5 17.5q-57 0 -90.5 -38.5t-33.5 -92.5q0 -56 33 -93.5t91 -37.5q18 0 35 6.5t28.5 15.5t19.5 18.5t12 16.5l4 6l61 -33q-2 -4 -6 -10.5t-18.5 -24 t-31.5 -30.5t-46 -23.5t-61 -10.5q-88 0 -142.5 58.5t-54.5 141.5z" />
<glyph unicode="&#xaa;" horiz-adv-x="424" d="M183 382q-44 0 -76.5 26t-32.5 71q0 110 189 110h10v6q0 63 -64 63q-20 0 -40.5 -7t-31.5 -14l-11 -7l-29 49q45 37 121 37q62 0 94.5 -32.5t32.5 -93.5v-201h-68v46h-2q-3 -6 -9.5 -15t-30 -23.5t-52.5 -14.5zM198 441q32 0 53 27.5t21 61.5v8h-11q-114 0 -114 -54 q0 -18 13.5 -30.5t37.5 -12.5zM74 265v57h274v-57h-274z" />
<glyph unicode="&#xab;" horiz-adv-x="561" d="M245 282l164 206h97l-164 -206l164 -205h-97zM207 77l-164 205l164 206h97l-164 -206l164 -205h-97z" />
<glyph unicode="&#xac;" horiz-adv-x="594" d="M49 340v78h477v-267h-81v189h-396z" />
<glyph unicode="&#xad;" horiz-adv-x="476" d="M92 242v86h292v-86h-292z" />
<glyph unicode="&#xae;" horiz-adv-x="802" d="M45 353q0 152 103.5 258.5t251.5 106.5q149 0 253.5 -106.5t104.5 -258.5t-104.5 -258.5t-253.5 -106.5q-148 0 -251.5 106.5t-103.5 258.5zM118 353q0 -125 81.5 -211t200.5 -86q121 0 203 86t82 211t-82 211t-203 86q-119 0 -200.5 -86t-81.5 -211zM278 166v377h145 q54 0 86.5 -31.5t32.5 -83.5q0 -40 -21 -66.5t-48 -33.5v-2q4 -4 13 -21l72 -139h-78l-70 146h-61v-146h-71zM349 364h60q28 0 44.5 17t16.5 47q0 29 -16.5 45t-44.5 16h-60v-125z" />
<glyph unicode="&#xaf;" horiz-adv-x="499" d="M122 784v71h255v-71h-255z" />
<glyph unicode="&#xb0;" horiz-adv-x="391" d="M195 422q-63 0 -107 43t-44 105q0 61 44 104.5t107 43.5t107.5 -43.5t44.5 -104.5t-44.5 -104.5t-107.5 -43.5zM195 496q31 0 53 21.5t22 52.5t-22 53t-53 22t-52 -22t-21 -53t21 -52.5t52 -21.5z" />
<glyph unicode="&#xb1;" horiz-adv-x="613" d="M42 246v78h224v246h82v-246h223v-78h-223v-246h-82v246h-224zM58 -95h497v-78h-497v78z" />
<glyph unicode="&#xb2;" horiz-adv-x="373" d="M33 463q0 44 22 79.5t53.5 58t63 42t53.5 43t22 50.5q0 28 -20 46.5t-51 18.5q-22 0 -43.5 -12t-31.5 -24l-10 -12l-49 45q2 3 5.5 8t17 17t28 21.5t39 17.5t50.5 8q63 0 102 -36t39 -92q0 -41 -21 -73t-52 -52.5t-61.5 -39t-53 -41.5t-24.5 -51h157v51h63v-113h-294 q-4 25 -4 40z" />
<glyph unicode="&#xb3;" horiz-adv-x="374" d="M46 747v113h280v-48l-112 -130q51 -8 85.5 -39t34.5 -85q0 -59 -44 -102t-112 -43q-44 0 -81 16.5t-51 32.5l-15 17l42 51q4 -6 11.5 -14t34 -22t56.5 -14q33 0 58 22t25 54q0 33 -26 52t-62 19h-32l-16 38l95 115l22 20v3q-14 -3 -30 -3h-100v-53h-63z" />
<glyph unicode="&#xb4;" horiz-adv-x="499" d="M144 755l104 127h111l-124 -127h-91z" />
<glyph unicode="&#xb6;" horiz-adv-x="596" d="M272 -50v291q-97 0 -167 67.5t-70 165.5t69.5 165t166.5 67h272v-86h-196v-670h-75zM409 -50v613h74v-613h-74z" />
<glyph unicode="&#xb7;" horiz-adv-x="280" d="M89 237v106h102v-106h-102z" />
<glyph unicode="&#xb8;" horiz-adv-x="499" d="M186 -97l32 122l51 -10v-8l-16 -63q34 -2 56.5 -22.5t22.5 -52.5q0 -43 -32 -64.5t-79 -21.5q-13 0 -26.5 1.5t-20.5 3.5l-7 2v53q19 -6 44 -6q51 0 51 32q0 34 -59 34h-17z" />
<glyph unicode="&#xb9;" horiz-adv-x="336" d="M37 423v62h103v247l3 31h-2q-5 -9 -16 -18l-48 -47l-46 49l117 113h67v-375h102v-62h-280z" />
<glyph unicode="&#xba;" horiz-adv-x="471" d="M235 384q-72 0 -121.5 47.5t-49.5 120.5q0 70 49.5 117.5t120.5 47.5q72 0 122 -47t50 -118q0 -73 -49.5 -120.5t-121.5 -47.5zM235 449q41 0 69.5 29t28.5 74q0 44 -28.5 72.5t-69.5 28.5q-42 0 -70.5 -28.5t-28.5 -72.5q0 -45 28.5 -74t70.5 -29zM80 265v57h312v-57 h-312z" />
<glyph unicode="&#xbb;" horiz-adv-x="560" d="M256 77l164 205l-164 206h97l164 -206l-164 -205h-97zM55 77l164 205l-164 206h97l164 -206l-164 -205h-97z" />
<glyph unicode="&#xbc;" horiz-adv-x="957" d="M785 0v109h-208v48l201 280h81v-269h62v-59h-62v-109h-74zM654 168h131v146l4 45h-3q-9 -22 -21 -39l-111 -150v-2zM268 0l336 706h75l-335 -706h-76zM56 269v62h103v247l3 31h-2q-5 -9 -16 -18l-48 -47l-46 49l117 113h67v-375h102v-62h-280z" />
<glyph unicode="&#xbd;" horiz-adv-x="941" d="M599 40q0 44 22 79.5t53.5 58t63 42t53.5 43t22 50.5q0 28 -20 46.5t-51 18.5q-22 0 -43.5 -12t-31.5 -24l-10 -12l-49 45q2 3 5.5 8t17 17t28 21.5t39 17.5t50.5 8q63 0 102 -36t39 -92q0 -41 -21 -73t-52 -52.5t-61.5 -39t-53 -41.5t-24.5 -51h157v51h63v-113h-294 q-4 25 -4 40zM263 0l336 706h75l-335 -706h-76zM49 269v62h103v247l3 31h-2q-5 -9 -16 -18l-48 -47l-46 49l117 113h67v-375h102v-62h-280z" />
<glyph unicode="&#xbe;" horiz-adv-x="970" d="M796 0v109h-208v48l201 280h81v-269h62v-59h-62v-109h-74zM665 168h131v146l4 45h-3q-9 -22 -21 -39l-111 -150v-2zM61 593v113h280v-48l-112 -130q51 -8 85.5 -39t34.5 -85q0 -59 -44 -102t-112 -43q-44 0 -81 16.5t-52 32.5l-14 17l42 51q4 -6 11.5 -14t34 -22 t56.5 -14q33 0 58 22t25 54q0 33 -26 52t-62 19h-32l-16 38l95 115l22 20v3q-14 -3 -30 -3h-100v-53h-63zM278 0l336 706h75l-335 -706h-76z" />
<glyph unicode="&#xbf;" horiz-adv-x="465" d="M222 408v98h100v-98h-100zM48 -28q0 46 18 82.5t44 61t52.5 47t44.5 51t18 61.5v37h94v-43q0 -42 -17.5 -77t-42.5 -58.5t-50 -45.5t-42.5 -49.5t-17.5 -58.5q0 -42 33 -71t82 -29q28 0 56.5 11t43.5 21l14 11l53 -69q-3 -3 -8 -7t-22 -15t-36 -19.5t-48 -15.5t-60 -7 q-88 0 -148.5 50.5t-60.5 131.5z" />
<glyph unicode="&#xc0;" horiz-adv-x="723" d="M12 0v78h68l225 628h113l225 -628h68v-78h-245v78h75l-55 157h-250l-55 -157h76v-78h-245zM261 315h200l-86 245q-4 13 -7 26.5t-4 20.5l-1 7h-3q-3 -25 -12 -54zM329 755l-124 127h112l103 -127h-91z" />
<glyph unicode="&#xc1;" horiz-adv-x="721" d="M11 0v78h68l225 628h113l225 -628h68v-78h-245v78h75l-55 157h-250l-55 -157h76v-78h-245zM260 315h200l-86 245q-4 13 -7 26.5t-4 20.5l-1 7h-3q-3 -25 -12 -54zM299 755l104 127h111l-124 -127h-91z" />
<glyph unicode="&#xc2;" horiz-adv-x="721" d="M11 0v78h68l225 628h113l225 -628h68v-78h-245v78h75l-55 157h-250l-55 -157h76v-78h-245zM260 315h200l-86 245q-4 13 -7 26.5t-4 20.5l-1 7h-3q-3 -25 -12 -54zM219 755l88 127h105l88 -127h-87l-53 80h-2l-52 -80h-87z" />
<glyph unicode="&#xc3;" horiz-adv-x="721" d="M11 0v78h68l225 628h113l225 -628h68v-78h-245v78h75l-55 157h-250l-55 -157h76v-78h-245zM260 315h200l-86 245q-4 13 -7 26.5t-4 20.5l-1 7h-3q-3 -25 -12 -54zM190 756q0 127 102 127q24 0 44 -10.5t31 -23t25 -23t27 -10.5q40 0 40 64h72q0 -127 -102 -127 q-24 0 -44 10.5t-31 23t-25 23t-27 10.5q-40 0 -40 -64h-72z" />
<glyph unicode="&#xc4;" horiz-adv-x="721" d="M11 0v78h68l225 628h113l225 -628h68v-78h-245v78h75l-55 157h-250l-55 -157h76v-78h-245zM260 315h200l-86 245q-4 13 -7 26.5t-4 20.5l-1 7h-3q-3 -25 -12 -54zM417 781v101h86v-101h-86zM217 781v101h86v-101h-86z" />
<glyph unicode="&#xc5;" horiz-adv-x="721" d="M11 0v78h68l225 628h113l225 -628h68v-78h-245v78h75l-55 157h-250l-55 -157h76v-78h-245zM260 315h200l-86 245q-4 13 -7 26.5t-4 20.5l-1 7h-3q-3 -25 -12 -54zM360 739q-38 0 -65 22t-27 58q0 38 27 60.5t65 22.5t66 -23t28 -60q0 -36 -28 -58t-66 -22zM360 783 q17 0 27 10t10 26q0 18 -10 28.5t-27 10.5q-16 0 -26 -10.5t-10 -28.5q0 -16 10 -26t26 -10z" />
<glyph unicode="&#xc6;" horiz-adv-x="941" d="M12 0v78h63l227 551h-77v77h648v-164h-83v82h-237v-227h248v-82h-248v-233h254v83h83v-165h-523v78h86v238h-180l-97 -238h76v-78h-240zM303 394h150v230h-56z" />
<glyph unicode="&#xc7;" horiz-adv-x="744" d="M348 -97l23 87q-142 15 -232 118.5t-90 248.5q0 155 103.5 258t257.5 103q36 0 78.5 -7t87 -21.5t74 -44t29.5 -67.5v-86h-93v55q0 29 -30.5 49t-67.5 28t-74 8q-114 0 -188 -76t-74 -195q0 -125 76 -205.5t192 -80.5q32 0 69 6.5t72 26.5t35 50v55h93v-86 q0 -35 -26.5 -63t-68.5 -43.5t-84.5 -23.5t-83.5 -9l-10 -44q33 -2 56 -23t23 -52q0 -43 -32.5 -64.5t-78.5 -21.5q-14 0 -27.5 1.5t-20.5 3.5l-7 2v53q19 -6 45 -6q50 0 50 32q0 34 -58 34h-18z" />
<glyph unicode="&#xc8;" horiz-adv-x="632" d="M53 0v78h88v551h-88v77h511v-164h-87v82h-236v-227h250v-82h-250v-233h253v85h87v-167h-528zM294 755l-124 127h112l103 -127h-91z" />
<glyph unicode="&#xc9;" horiz-adv-x="632" d="M266 755l104 127h111l-124 -127h-91zM53 0v78h88v551h-88v77h511v-164h-87v82h-236v-227h250v-82h-250v-233h253v85h87v-167h-528z" />
<glyph unicode="&#xca;" horiz-adv-x="632" d="M186 755l88 127h105l88 -127h-87l-53 80h-2l-52 -80h-87zM53 0v78h88v551h-88v77h511v-164h-87v82h-236v-227h250v-82h-250v-233h253v85h87v-167h-528z" />
<glyph unicode="&#xcb;" horiz-adv-x="632" d="M383 781v101h86v-101h-86zM183 781v101h86v-101h-86zM53 0v78h88v551h-88v77h511v-164h-87v82h-236v-227h250v-82h-250v-233h253v85h87v-167h-528z" />
<glyph unicode="&#xcc;" horiz-adv-x="382" d="M53 0v78h88v551h-88v77h277v-77h-89v-551h89v-78h-277zM160 755l-124 127h112l103 -127h-91z" />
<glyph unicode="&#xcd;" horiz-adv-x="382" d="M53 0v78h88v551h-88v77h277v-77h-89v-551h89v-78h-277zM131 755l104 127h111l-124 -127h-91z" />
<glyph unicode="&#xce;" horiz-adv-x="382" d="M53 0v78h88v551h-88v77h277v-77h-89v-551h89v-78h-277zM51 755l88 127h105l88 -127h-87l-53 80h-2l-52 -80h-87z" />
<glyph unicode="&#xcf;" horiz-adv-x="382" d="M53 0v78h88v551h-88v77h277v-77h-89v-551h89v-78h-277zM248 781v101h86v-101h-86zM48 781v101h86v-101h-86z" />
<glyph unicode="&#xd0;" horiz-adv-x="787" d="M53 0v78h88v234h-75v82h75v235h-88v77h324q164 0 261 -93.5t97 -258.5q0 -166 -97 -260t-261 -94h-324zM241 82h129q120 0 190.5 71t70.5 201q0 129 -71 199.5t-190 70.5h-129v-230h155v-82h-155v-230z" />
<glyph unicode="&#xd1;" horiz-adv-x="838" d="M53 0v78h88v551h-88v77h187l347 -506l24 -51h3q-5 35 -5 57v423h-90v77h279v-77h-89v-629h-98l-347 506q-6 9 -12 21.5t-9 20.5l-3 9h-3l4 -57v-422h91v-78h-279zM254 756q0 127 102 127q24 0 44 -10.5t31 -23t25 -23t27 -10.5q40 0 40 64h72q0 -127 -102 -127 q-24 0 -44 10.5t-31 23t-25 23t-27 10.5q-40 0 -40 -64h-72z" />
<glyph unicode="&#xd2;" horiz-adv-x="822" d="M48 358q0 152 104.5 256t258.5 104q153 0 258 -104t105 -256q0 -156 -105 -263t-258 -107q-154 0 -258.5 107t-104.5 263zM151 358q0 -119 75.5 -200t184.5 -81q108 0 183.5 81t75.5 200q0 115 -75.5 193.5t-183.5 78.5q-109 0 -184.5 -78.5t-75.5 -193.5zM379 755 l-124 127h112l103 -127h-91z" />
<glyph unicode="&#xd3;" horiz-adv-x="822" d="M350 755l104 127h111l-124 -127h-91zM48 358q0 152 104.5 256t258.5 104q153 0 258 -104t105 -256q0 -156 -105 -263t-258 -107q-154 0 -258.5 107t-104.5 263zM151 358q0 -119 75.5 -200t184.5 -81q108 0 183.5 81t75.5 200q0 115 -75.5 193.5t-183.5 78.5 q-109 0 -184.5 -78.5t-75.5 -193.5z" />
<glyph unicode="&#xd4;" horiz-adv-x="822" d="M270 755l88 127h105l88 -127h-87l-53 80h-2l-52 -80h-87zM48 358q0 152 104.5 256t258.5 104q153 0 258 -104t105 -256q0 -156 -105 -263t-258 -107q-154 0 -258.5 107t-104.5 263zM151 358q0 -119 75.5 -200t184.5 -81q108 0 183.5 81t75.5 200q0 115 -75.5 193.5 t-183.5 78.5q-109 0 -184.5 -78.5t-75.5 -193.5z" />
<glyph unicode="&#xd5;" horiz-adv-x="822" d="M48 358q0 152 104.5 256t258.5 104q153 0 258 -104t105 -256q0 -156 -105 -263t-258 -107q-154 0 -258.5 107t-104.5 263zM151 358q0 -119 75.5 -200t184.5 -81q108 0 183.5 81t75.5 200q0 115 -75.5 193.5t-183.5 78.5q-109 0 -184.5 -78.5t-75.5 -193.5zM241 756 q0 127 102 127q24 0 44 -10.5t31 -23t25 -23t27 -10.5q40 0 40 64h72q0 -127 -102 -127q-24 0 -44 10.5t-31 23t-25 23t-27 10.5q-40 0 -40 -64h-72z" />
<glyph unicode="&#xd6;" horiz-adv-x="822" d="M468 781v101h86v-101h-86zM268 781v101h86v-101h-86zM48 358q0 152 104.5 256t258.5 104q153 0 258 -104t105 -256q0 -156 -105 -263t-258 -107q-154 0 -258.5 107t-104.5 263zM151 358q0 -119 75.5 -200t184.5 -81q108 0 183.5 81t75.5 200q0 115 -75.5 193.5 t-183.5 78.5q-109 0 -184.5 -78.5t-75.5 -193.5z" />
<glyph unicode="&#xd7;" horiz-adv-x="613" d="M46 55l207 230l-207 230l55 55l205 -228l205 228l55 -55l-208 -230l208 -230l-55 -55l-205 227l-205 -227z" />
<glyph unicode="&#xd8;" horiz-adv-x="821" d="M122 9l49 68q-123 110 -123 281q0 152 105 256t257 104q102 0 186 -50l45 64l49 -34l-45 -63q60 -50 94 -122t34 -155q0 -156 -105 -263t-258 -107q-105 0 -191 54l-48 -67zM229 158l311 433q-59 36 -130 36q-109 0 -184.5 -77t-75.5 -192q0 -121 79 -200zM274 119 q60 -40 136 -40q109 0 185 80t76 199q0 121 -83 197z" />
<glyph unicode="&#xd9;" horiz-adv-x="797" d="M120 263v366h-89v77h278v-77h-89v-365q0 -72 27 -115q45 -72 152 -72t152 74q27 46 27 114v364h-89v77h277v-77h-88v-366q0 -102 -49 -172q-35 -50 -96 -76.5t-134 -26.5q-75 0 -135.5 27t-96.5 76q-47 64 -47 172zM367 755l-124 127h112l103 -127h-91z" />
<glyph unicode="&#xda;" horiz-adv-x="797" d="M338 755l104 127h111l-124 -127h-91zM120 263v366h-89v77h278v-77h-89v-365q0 -72 27 -115q45 -72 152 -72t152 74q27 46 27 114v364h-89v77h277v-77h-88v-366q0 -102 -49 -172q-35 -50 -96 -76.5t-134 -26.5q-75 0 -135.5 27t-96.5 76q-47 64 -47 172z" />
<glyph unicode="&#xdb;" horiz-adv-x="797" d="M258 755l88 127h105l88 -127h-87l-53 80h-2l-52 -80h-87zM120 263v366h-89v77h278v-77h-89v-365q0 -72 27 -115q45 -72 152 -72t152 74q27 46 27 114v364h-89v77h277v-77h-88v-366q0 -102 -49 -172q-35 -50 -96 -76.5t-134 -26.5q-75 0 -135.5 27t-96.5 76 q-47 64 -47 172z" />
<glyph unicode="&#xdc;" horiz-adv-x="797" d="M456 781v101h86v-101h-86zM256 781v101h86v-101h-86zM120 263v366h-89v77h278v-77h-89v-365q0 -72 27 -115q45 -72 152 -72t152 74q27 46 27 114v364h-89v77h277v-77h-88v-366q0 -102 -49 -172q-35 -50 -96 -76.5t-134 -26.5q-75 0 -135.5 27t-96.5 76q-47 64 -47 172z " />
<glyph unicode="&#xdd;" horiz-adv-x="650" d="M186 0v78h89v221l-198 330h-67v77h243v-77h-74l131 -222l14 -30h2q6 15 15 30l131 222h-73v77h241v-77h-67l-198 -330v-221h89v-78h-278zM266 755l104 127h111l-124 -127h-91z" />
<glyph unicode="&#xde;" horiz-adv-x="650" d="M53 0v78h88v551h-88v77h277v-77h-90v-72h167q97 0 155.5 -51.5t58.5 -140.5q0 -90 -58.5 -143.5t-156.5 -53.5h-166v-90h90v-78h-277zM240 246h146q64 0 99 31t35 88q0 56 -34.5 85t-98.5 29h-147v-233z" />
<glyph unicode="&#xdf;" horiz-adv-x="622" d="M32 0v75h80v455q0 88 64 138t152 50q82 0 136 -46.5t54 -114.5q0 -33 -16 -61.5t-34.5 -45.5t-34.5 -38t-16 -41q0 -17 18.5 -35t45 -36t52.5 -38.5t44.5 -51t18.5 -65.5q0 -73 -49.5 -112.5t-121.5 -39.5q-41 0 -76.5 7.5t-50.5 14.5l-14 7v86q56 -31 130 -31 q36 0 60 18t24 54q0 27 -28 53.5t-61.5 46t-61.5 51.5t-28 68q0 28 15.5 54t34.5 43.5t34.5 42t15.5 48.5q0 32 -25 55t-70 23q-47 0 -81.5 -29t-34.5 -82v-523h-176z" />
<glyph unicode="&#xe0;" d="M33 141q0 38 15.5 67.5t43 47.5t57 29.5t66.5 17t61.5 7t51.5 1.5h32v19q0 108 -108 108q-36 0 -72 -12t-54 -24l-19 -13l-39 69q3 2 8.5 6.5t25 14.5t40 18t53 14.5t65.5 6.5q97 0 147 -49.5t50 -145.5v-226q0 -22 22 -22h51v-75h-101q-63 0 -63 55v7l4 33h-2 q-2 -4 -5.5 -11.5t-18 -26t-31.5 -32.5t-47.5 -25.5t-64.5 -11.5q-69 0 -118.5 40t-49.5 113zM131 149q0 -36 24.5 -61t66.5 -25q61 0 100 51t39 113v21h-25q-205 0 -205 -99zM231 579l-124 127h112l103 -127h-91z" />
<glyph unicode="&#xe1;" d="M33 141q0 38 15.5 67.5t43 47.5t57 29.5t66.5 17t61.5 7t51.5 1.5h32v19q0 108 -108 108q-36 0 -72 -12t-54 -24l-19 -13l-39 69q3 2 8.5 6.5t25 14.5t40 18t53 14.5t65.5 6.5q97 0 147 -49.5t50 -145.5v-226q0 -22 22 -22h51v-75h-101q-63 0 -63 55v7l4 33h-2 q-2 -4 -5.5 -11.5t-18 -26t-31.5 -32.5t-47.5 -25.5t-64.5 -11.5q-69 0 -118.5 40t-49.5 113zM131 149q0 -36 24.5 -61t66.5 -25q61 0 100 51t39 113v21h-25q-205 0 -205 -99zM202 579l104 127h111l-124 -127h-91z" />
<glyph unicode="&#xe2;" d="M33 141q0 38 15.5 67.5t43 47.5t57 29.5t66.5 17t61.5 7t51.5 1.5h32v19q0 108 -108 108q-36 0 -72 -12t-54 -24l-19 -13l-39 69q3 2 8.5 6.5t25 14.5t40 18t53 14.5t65.5 6.5q97 0 147 -49.5t50 -145.5v-226q0 -22 22 -22h51v-75h-101q-63 0 -63 55v7l4 33h-2 q-2 -4 -5.5 -11.5t-18 -26t-31.5 -32.5t-47.5 -25.5t-64.5 -11.5q-69 0 -118.5 40t-49.5 113zM131 149q0 -36 24.5 -61t66.5 -25q61 0 100 51t39 113v21h-25q-205 0 -205 -99zM122 579l88 127h105l88 -127h-87l-53 80h-2l-52 -80h-87z" />
<glyph unicode="&#xe3;" d="M33 141q0 38 15.5 67.5t43 47.5t57 29.5t66.5 17t61.5 7t51.5 1.5h32v19q0 108 -108 108q-36 0 -72 -12t-54 -24l-19 -13l-39 69q3 2 8.5 6.5t25 14.5t40 18t53 14.5t65.5 6.5q97 0 147 -49.5t50 -145.5v-226q0 -22 22 -22h51v-75h-101q-63 0 -63 55v7l4 33h-2 q-2 -4 -5.5 -11.5t-18 -26t-31.5 -32.5t-47.5 -25.5t-64.5 -11.5q-69 0 -118.5 40t-49.5 113zM131 149q0 -36 24.5 -61t66.5 -25q61 0 100 51t39 113v21h-25q-205 0 -205 -99zM93 580q0 127 102 127q24 0 44 -10.5t31 -23t25 -23t27 -10.5q40 0 40 64h72q0 -127 -102 -127 q-24 0 -44 10.5t-31 23t-25 23t-27 10.5q-40 0 -40 -64h-72z" />
<glyph unicode="&#xe4;" d="M33 141q0 38 15.5 67.5t43 47.5t57 29.5t66.5 17t61.5 7t51.5 1.5h32v19q0 108 -108 108q-36 0 -72 -12t-54 -24l-19 -13l-39 69q3 2 8.5 6.5t25 14.5t40 18t53 14.5t65.5 6.5q97 0 147 -49.5t50 -145.5v-226q0 -22 22 -22h51v-75h-101q-63 0 -63 55v7l4 33h-2 q-2 -4 -5.5 -11.5t-18 -26t-31.5 -32.5t-47.5 -25.5t-64.5 -11.5q-69 0 -118.5 40t-49.5 113zM131 149q0 -36 24.5 -61t66.5 -25q61 0 100 51t39 113v21h-25q-205 0 -205 -99zM320 605v101h86v-101h-86zM120 605v101h86v-101h-86z" />
<glyph unicode="&#xe5;" d="M33 141q0 38 15.5 67.5t43 47.5t57 29.5t66.5 17t61.5 7t51.5 1.5h32v19q0 108 -108 108q-36 0 -72 -12t-54 -24l-19 -13l-39 69q3 2 8.5 6.5t25 14.5t40 18t53 14.5t65.5 6.5q97 0 147 -49.5t50 -145.5v-226q0 -22 22 -22h51v-75h-101q-63 0 -63 55v7l4 33h-2 q-2 -4 -5.5 -11.5t-18 -26t-31.5 -32.5t-47.5 -25.5t-64.5 -11.5q-69 0 -118.5 40t-49.5 113zM131 149q0 -36 24.5 -61t66.5 -25q61 0 100 51t39 113v21h-25q-205 0 -205 -99zM263 563q-38 0 -65 22t-27 58q0 38 27 60.5t65 22.5t66 -23t28 -60q0 -36 -28 -58t-66 -22z M263 607q17 0 27 10t10 26q0 18 -10 28.5t-27 10.5q-16 0 -26 -10.5t-10 -28.5q0 -16 10 -26t26 -10z" />
<glyph unicode="&#xe6;" horiz-adv-x="863" d="M34 141q0 38 14 67.5t41 47t55 28.5t66 16t64 6.5t60 1.5h27v17q0 113 -111 113q-36 0 -72 -12t-54 -24l-18 -13l-39 69q8 7 23.5 17t65.5 26.5t102 16.5q124 0 164 -89h2q62 89 180 89q101 0 159 -67t58 -169l-3 -37h-363q4 -84 51 -130t118 -46q38 0 75.5 14.5 t55.5 29.5l18 15l40 -68q-8 -8 -24 -20t-67 -32t-104 -20q-75 0 -131 33.5t-87 93.5h-2q-5 -14 -16 -31.5t-32.5 -41t-59 -39t-82.5 -15.5q-73 0 -123.5 41t-50.5 112zM459 308h264q-2 62 -37 97.5t-84 35.5q-56 0 -94.5 -34.5t-48.5 -98.5zM131 146q0 -34 25 -58t69 -24 q59 0 98 51t39 112v18h-47q-184 0 -184 -99z" />
<glyph unicode="&#xe7;" horiz-adv-x="553" d="M243 -97l24 89q-98 14 -162.5 84t-64.5 176q0 115 77 190.5t191 75.5q31 0 63 -6t63.5 -18.5t51.5 -36t20 -54.5v-62h-86v35q0 27 -35 42.5t-74 15.5q-77 0 -124.5 -49.5t-47.5 -130.5q0 -84 51 -133t127 -49q39 0 78.5 16t50.5 24t33 25l37 -71q-16 -15 -37.5 -29.5 t-66.5 -31t-91 -17.5l-10 -44q33 -2 56 -23t23 -52q0 -43 -32.5 -64.5t-78.5 -21.5q-13 0 -27 1.5t-21 3.5l-7 2v53q20 -6 45 -6q50 0 50 32q0 34 -58 34h-18z" />
<glyph unicode="&#xe8;" d="M41 253q0 119 71.5 192t181.5 73q104 0 161.5 -67t57.5 -170l-3 -37h-370q4 -81 54 -126.5t121 -45.5q39 0 77 14t56 28l18 15l40 -71q-9 -8 -24.5 -19.5t-67 -31t-105.5 -19.5q-118 0 -193 75.5t-75 189.5zM144 306h269q-2 64 -36.5 99.5t-84.5 35.5q-56 0 -97 -36 t-51 -99zM263 579l-124 127h112l103 -127h-91z" />
<glyph unicode="&#xe9;" d="M234 579l104 127h111l-124 -127h-91zM41 253q0 119 71.5 192t181.5 73q104 0 161.5 -67t57.5 -170l-3 -37h-370q4 -81 54 -126.5t121 -45.5q39 0 77 14t56 28l18 15l40 -71q-9 -8 -24.5 -19.5t-67 -31t-105.5 -19.5q-118 0 -193 75.5t-75 189.5zM144 306h269 q-2 64 -36.5 99.5t-84.5 35.5q-56 0 -97 -36t-51 -99z" />
<glyph unicode="&#xea;" d="M154 579l88 127h105l88 -127h-87l-53 80h-2l-52 -80h-87zM41 253q0 119 71.5 192t181.5 73q104 0 161.5 -67t57.5 -170l-3 -37h-370q4 -81 54 -126.5t121 -45.5q39 0 77 14t56 28l18 15l40 -71q-9 -8 -24.5 -19.5t-67 -31t-105.5 -19.5q-118 0 -193 75.5t-75 189.5z M144 306h269q-2 64 -36.5 99.5t-84.5 35.5q-56 0 -97 -36t-51 -99z" />
<glyph unicode="&#xeb;" d="M352 605v101h86v-101h-86zM152 605v101h86v-101h-86zM41 253q0 119 71.5 192t181.5 73q104 0 161.5 -67t57.5 -170l-3 -37h-370q4 -81 54 -126.5t121 -45.5q39 0 77 14t56 28l18 15l40 -71q-9 -8 -24.5 -19.5t-67 -31t-105.5 -19.5q-118 0 -193 75.5t-75 189.5zM144 306 h269q-2 64 -36.5 99.5t-84.5 35.5q-56 0 -97 -36t-51 -99z" />
<glyph unicode="&#xec;" horiz-adv-x="323" d="M47 0v75h74v356h-76v75h173v-431h73v-75h-244zM137 579l-124 127h112l103 -127h-91z" />
<glyph unicode="&#xed;" horiz-adv-x="323" d="M108 579l104 127h111l-124 -127h-91zM47 0v75h74v356h-76v75h173v-431h73v-75h-244z" />
<glyph unicode="&#xee;" horiz-adv-x="323" d="M28 579l88 127h105l88 -127h-87l-53 80h-2l-52 -80h-87zM47 0v75h74v356h-76v75h173v-431h73v-75h-244z" />
<glyph unicode="&#xef;" horiz-adv-x="323" d="M47 0v75h74v356h-76v75h173v-431h73v-75h-244zM208 605v101h86v-101h-86zM35 605v101h86v-101h-86z" />
<glyph unicode="&#xf0;" horiz-adv-x="590" d="M43 235q0 95 63 163t173 68q36 0 66.5 -10.5t43.5 -21.5l13 -10h2q-31 83 -111 136l-178 -78l-10 52l129 58q-64 32 -134 48l27 79q121 -28 212 -83l133 60l10 -53l-95 -43q146 -120 146 -325q0 -53 -14.5 -102t-43.5 -91.5t-79.5 -68t-115.5 -25.5q-109 0 -173 73.5 t-64 173.5zM141 233q0 -66 37.5 -113.5t103.5 -47.5q39 0 69.5 16.5t48 44.5t26.5 59.5t9 65.5q0 57 -38.5 93.5t-102.5 36.5q-73 0 -113 -45.5t-40 -109.5z" />
<glyph unicode="&#xf1;" horiz-adv-x="689" d="M48 0v75h79v334q0 22 -22 22h-62v75h114q64 0 64 -56v-26l-3 -29h2q5 13 18 31t35.5 40t60.5 37t83 15q86 0 127 -48t41 -146v-249h80v-75h-177v302q0 61 -19.5 94t-75.5 33q-74 0 -121.5 -57.5t-47.5 -136.5v-160h80v-75h-256zM194 580q0 127 102 127q24 0 44 -10.5 t31 -23t25 -23t27 -10.5q40 0 40 64h72q0 -127 -102 -127q-24 0 -44 10.5t-31 23t-25 23t-27 10.5q-40 0 -40 -64h-72z" />
<glyph unicode="&#xf2;" horiz-adv-x="626" d="M40 254q0 114 79 189t194 75t194 -75t79 -189t-79.5 -190t-193.5 -76t-193.5 76t-79.5 190zM139 254q0 -79 50.5 -130.5t123.5 -51.5q72 0 123 52t51 130t-51 129t-123 51q-73 0 -123.5 -51t-50.5 -129zM281 579l-124 127h112l103 -127h-91z" />
<glyph unicode="&#xf3;" horiz-adv-x="626" d="M253 579l104 127h111l-124 -127h-91zM40 254q0 114 79 189t194 75t194 -75t79 -189t-79.5 -190t-193.5 -76t-193.5 76t-79.5 190zM139 254q0 -79 50.5 -130.5t123.5 -51.5q72 0 123 52t51 130t-51 129t-123 51q-73 0 -123.5 -51t-50.5 -129z" />
<glyph unicode="&#xf4;" horiz-adv-x="626" d="M173 579l88 127h105l88 -127h-87l-53 80h-2l-52 -80h-87zM40 254q0 114 79 189t194 75t194 -75t79 -189t-79.5 -190t-193.5 -76t-193.5 76t-79.5 190zM139 254q0 -79 50.5 -130.5t123.5 -51.5q72 0 123 52t51 130t-51 129t-123 51q-73 0 -123.5 -51t-50.5 -129z" />
<glyph unicode="&#xf5;" horiz-adv-x="626" d="M40 254q0 114 79 189t194 75t194 -75t79 -189t-79.5 -190t-193.5 -76t-193.5 76t-79.5 190zM139 254q0 -79 50.5 -130.5t123.5 -51.5q72 0 123 52t51 130t-51 129t-123 51q-73 0 -123.5 -51t-50.5 -129zM143 580q0 127 102 127q24 0 44 -10.5t31 -23t25 -23t27 -10.5 q40 0 40 64h72q0 -127 -102 -127q-24 0 -44 10.5t-31 23t-25 23t-27 10.5q-40 0 -40 -64h-72z" />
<glyph unicode="&#xf6;" horiz-adv-x="626" d="M370 605v101h86v-101h-86zM170 605v101h86v-101h-86zM40 254q0 114 79 189t194 75t194 -75t79 -189t-79.5 -190t-193.5 -76t-193.5 76t-79.5 190zM139 254q0 -79 50.5 -130.5t123.5 -51.5q72 0 123 52t51 130t-51 129t-123 51q-73 0 -123.5 -51t-50.5 -129z" />
<glyph unicode="&#xf7;" horiz-adv-x="613" d="M259 435v91h94v-91h-94zM54 246v78h505v-78h-505zM259 44v91h94v-91h-94z" />
<glyph unicode="&#xf8;" horiz-adv-x="626" d="M101 -5l37 53q-45 36 -71 89.5t-26 116.5q0 114 79 189t193 75q73 0 137 -35l40 55l43 -30l-39 -54q92 -79 92 -200q0 -114 -79.5 -190t-193.5 -76q-69 0 -130 32l-39 -56zM193 124l206 287q-44 23 -86 23q-72 0 -123 -51t-51 -129q0 -74 54 -130zM235 92q38 -20 78 -20 q73 0 123.5 51.5t50.5 130.5q0 70 -48 123z" />
<glyph unicode="&#xf9;" horiz-adv-x="665" d="M105 182v249h-85v75h182v-304q0 -61 19.5 -93.5t75.5 -32.5q73 0 118.5 59t45.5 138v158h-85v75h182v-410q0 -22 22 -22h53v-74h-105q-64 0 -64 56v22l2 30h-2q-5 -13 -17.5 -30.5t-35 -39t-59.5 -36t-81 -14.5q-166 0 -166 194zM287 579l-124 127h112l103 -127h-91z" />
<glyph unicode="&#xfa;" horiz-adv-x="665" d="M259 579l104 127h111l-124 -127h-91zM105 182v249h-85v75h182v-304q0 -61 19.5 -93.5t75.5 -32.5q73 0 118.5 59t45.5 138v158h-85v75h182v-410q0 -22 22 -22h53v-74h-105q-64 0 -64 56v22l2 30h-2q-5 -13 -17.5 -30.5t-35 -39t-59.5 -36t-81 -14.5q-166 0 -166 194z" />
<glyph unicode="&#xfb;" horiz-adv-x="665" d="M178 579l88 127h105l88 -127h-87l-53 80h-2l-52 -80h-87zM105 182v249h-85v75h182v-304q0 -61 19.5 -93.5t75.5 -32.5q73 0 118.5 59t45.5 138v158h-85v75h182v-410q0 -22 22 -22h53v-74h-105q-64 0 -64 56v22l2 30h-2q-5 -13 -17.5 -30.5t-35 -39t-59.5 -36t-81 -14.5 q-166 0 -166 194z" />
<glyph unicode="&#xfc;" horiz-adv-x="665" d="M376 605v101h86v-101h-86zM176 605v101h86v-101h-86zM105 182v249h-85v75h182v-304q0 -61 19.5 -93.5t75.5 -32.5q73 0 118.5 59t45.5 138v158h-85v75h182v-410q0 -22 22 -22h53v-74h-105q-64 0 -64 56v22l2 30h-2q-5 -13 -17.5 -30.5t-35 -39t-59.5 -36t-81 -14.5 q-166 0 -166 194z" />
<glyph unicode="&#xfd;" horiz-adv-x="590" d="M64 -105q29 -24 72 -24q63 0 93 70l21 50l-177 440h-64v75h231v-75h-67l113 -301l9 -44h3q4 22 12 44l112 301h-65v75h224v-75h-63l-200 -511q-25 -63 -71.5 -96.5t-106.5 -33.5q-29 0 -56 8t-40 16l-13 8zM240 579l104 127h111l-124 -127h-91z" />
<glyph unicode="&#xfe;" horiz-adv-x="608" d="M3 631v75h179v-232l-2 -42h2q2 3 5 9t16.5 21t30 26t45.5 20.5t63 9.5q102 0 163 -74t61 -191t-63.5 -191t-163.5 -74q-33 0 -61 9t-45 21t-29 24.5t-17 21.5l-5 9h-2q2 -18 2 -44v-154h79v-75h-256v75h80v756h-82zM179 252q0 -79 39.5 -129.5t105.5 -50.5q62 0 103 50 t41 131q0 80 -39 130.5t-103 50.5t-105.5 -45t-41.5 -137z" />
<glyph unicode="&#xff;" horiz-adv-x="590" d="M64 -105q29 -24 72 -24q63 0 93 70l21 50l-177 440h-64v75h231v-75h-67l113 -301l9 -44h3q4 22 12 44l112 301h-65v75h224v-75h-63l-200 -511q-25 -63 -71.5 -96.5t-106.5 -33.5q-29 0 -56 8t-40 16l-13 8zM357 605v101h86v-101h-86zM157 605v101h86v-101h-86z" />
<glyph unicode="&#x152;" horiz-adv-x="974" d="M49 354q0 153 105 257t261 104q26 0 66 -4.5t56 -4.5h369v-164h-83v82h-237v-228h247v-81h-247v-233h254v83h83v-165h-385q-16 0 -56.5 -4.5t-66.5 -4.5q-156 0 -261 104.5t-105 258.5zM151 354q0 -119 74 -199t190 -80q18 0 35.5 2t26.5 4l9 2v541q-31 7 -71 7 q-116 0 -190 -79.5t-74 -197.5z" />
<glyph unicode="&#x153;" horiz-adv-x="1000" d="M40 252q0 117 78 191.5t191 74.5q148 0 220 -120h2q64 120 208 120q103 0 161 -67t58 -170l-3 -38h-369q6 -82 55.5 -127.5t118.5 -45.5q39 0 76.5 14.5t55.5 29.5l18 14l40 -68q-9 -8 -24.5 -20t-67 -32t-104.5 -20q-153 0 -221 123h-2q-72 -123 -221 -123 q-114 0 -192 73.5t-78 190.5zM589 306h270q-2 63 -36.5 99t-84.5 36q-57 0 -98 -36t-51 -99zM139 252q0 -80 50 -130t123 -50t123.5 50.5t50.5 132.5q0 79 -51 129t-123 50t-122.5 -50.5t-50.5 -131.5z" />
<glyph unicode="&#x178;" horiz-adv-x="650" d="M186 0v78h89v221l-198 330h-67v77h243v-77h-74l131 -222l14 -30h2q6 15 15 30l131 222h-73v77h241v-77h-67l-198 -330v-221h89v-78h-278zM383 781v101h86v-101h-86zM183 781v101h86v-101h-86z" />
<glyph unicode="&#x2c6;" horiz-adv-x="499" d="M109 755l88 127h105l88 -127h-87l-53 80h-2l-52 -80h-87z" />
<glyph unicode="&#x2dc;" horiz-adv-x="499" d="M79 756q0 127 102 127q24 0 44 -10.5t31 -23t25 -23t27 -10.5q40 0 40 64h72q0 -127 -102 -127q-24 0 -44 10.5t-31 23t-25 23t-27 10.5q-40 0 -40 -64h-72z" />
<glyph unicode="&#x2000;" horiz-adv-x="451" />
<glyph unicode="&#x2001;" horiz-adv-x="902" />
<glyph unicode="&#x2002;" horiz-adv-x="451" />
<glyph unicode="&#x2003;" horiz-adv-x="902" />
<glyph unicode="&#x2004;" horiz-adv-x="300" />
<glyph unicode="&#x2005;" horiz-adv-x="225" />
<glyph unicode="&#x2006;" horiz-adv-x="150" />
<glyph unicode="&#x2007;" horiz-adv-x="150" />
<glyph unicode="&#x2008;" horiz-adv-x="112" />
<glyph unicode="&#x2009;" horiz-adv-x="180" />
<glyph unicode="&#x200a;" horiz-adv-x="50" />
<glyph unicode="&#x2010;" horiz-adv-x="476" d="M92 242v86h292v-86h-292z" />
<glyph unicode="&#x2011;" horiz-adv-x="476" d="M92 242v86h292v-86h-292z" />
<glyph unicode="&#x2012;" horiz-adv-x="476" d="M92 242v86h292v-86h-292z" />
<glyph unicode="&#x2013;" horiz-adv-x="714" d="M94 246v78h526v-78h-526z" />
<glyph unicode="&#x2014;" horiz-adv-x="914" d="M94 246v78h726v-78h-726z" />
<glyph unicode="&#x2018;" horiz-adv-x="229" d="M47 499l71 218h72l-49 -218h-94z" />
<glyph unicode="&#x2019;" horiz-adv-x="223" d="M50 499l49 218h94l-71 -218h-72z" />
<glyph unicode="&#x201a;" horiz-adv-x="246" d="M36 -113l49 218h92l-71 -218h-70z" />
<glyph unicode="&#x201c;" horiz-adv-x="377" d="M47 499l71 218h72l-48 -218h-95zM194 499l71 218h72l-48 -218h-95z" />
<glyph unicode="&#x201d;" horiz-adv-x="370" d="M197 499l49 218h94l-71 -218h-72zM50 499l49 218h94l-71 -218h-72z" />
<glyph unicode="&#x201e;" horiz-adv-x="390" d="M181 -113l49 218h91l-71 -218h-69zM36 -113l49 218h92l-71 -218h-70z" />
<glyph unicode="&#x2022;" horiz-adv-x="413" d="M206 136q-64 0 -109 45.5t-45 109.5t45 109.5t109 45.5t109.5 -45t45.5 -110t-45.5 -110t-109.5 -45z" />
<glyph unicode="&#x2026;" horiz-adv-x="772" d="M595 0v105h101v-105h-101zM335 0v105h102v-105h-102zM76 0v105h101v-105h-101z" />
<glyph unicode="&#x202f;" horiz-adv-x="180" />
<glyph unicode="&#x2039;" horiz-adv-x="359" d="M207 77l-164 205l164 206h97l-164 -206l164 -205h-97z" />
<glyph unicode="&#x203a;" horiz-adv-x="359" d="M55 77l164 205l-164 206h97l164 -206l-164 -205h-97z" />
<glyph unicode="&#x205f;" horiz-adv-x="225" />
<glyph unicode="&#x20ac;" horiz-adv-x="599" d="M44 250v61h55q-5 41 0 92h-55v62h66q31 111 123 182t214 71q24 0 49.5 -3t38.5 -6l13 -3l-23 -86q-39 10 -80 10q-83 0 -144 -45t-86 -120h280l-13 -62h-281q-5 -39 0 -92h265l-13 -61h-235q24 -78 85.5 -125.5t144.5 -47.5q23 0 46 3.5t34 7.5l12 3l19 -86 q-49 -17 -112 -17q-126 0 -217.5 73t-120.5 189h-65z" />
<glyph unicode="&#x2122;" horiz-adv-x="954" d="M440 266l35 440h70l104 -230l13 -42h2q6 24 14 42l104 230h70l34 -440h-76l-20 263l1 30h-2l-95 -212h-61l-95 212h-2l1 -30l-21 -263h-76zM181 266v373h-153v67h381v-67h-153v-373h-75z" />
<glyph unicode="&#x25fc;" horiz-adv-x="505" d="M0 505h505v-505h-505v505z" />
</font>
</defs>
</svg>
