<?xml version="1.0" encoding="UTF-8"?>
<svg xmlns="http://www.w3.org/2000/svg" xmlns:xlink="http://www.w3.org/1999/xlink" version="1.2" >
<font id="Codec Cold Heavy">
<font-face  font-family="Codec Cold" units-per-em="2048" ascent="1409" descent="-356" font-style="normal" font-weight="850" font-stretch="normal" cap-height="1360" x-height="1043" underline-position="-144" underline-thickness="95" />
<missing-glyph  horiz-adv-x="486" d="" />
<glyph glyph-name="NULL" d="" />
<glyph glyph-name="CR" unicode="&#xd;" horiz-adv-x="486" d="" />
<glyph glyph-name="space" unicode="&#x20;" horiz-adv-x="486" d="" />
<glyph glyph-name="DLE" unicode="&#x10;" horiz-adv-x="1673" d="M504 685 C544 740 605 771 676 771 C799 771 896 674 896 522 C896 405 842 323 763 288 C650 311 555 387 504 493 L504 685 Z M836 1081 C1013 1081 1158 959 1199 782 C1117 936 961 1048 759 1073 C784 1078 810 1081 836 1081 L836 1081 Z M87 551 L0 551 L0 502 L87 502 L87 551 Z M1673 704 L1586 704 L1586 682 C1586 1078 1249 1395 836 1395 C716 1395 604 1368 504 1322 L504 1360 L127 1360 L127 916 L115 882 L0 882 L0 822 L100 822 C92 783 87 742 86 701 L0 701 L0 652 L86 652 C87 630 90 608 93 586 C90 565 89 543 89 521 C89 449 102 380 127 316 L127 0 L459 0 C523 -22 595 -35 672 -35 C703 -35 733 -33 762 -29 C786 -32 811 -33 836 -33 C1249 -33 1586 287 1586 682 L1586 655 L1673 655 L1673 704 Z " />
<glyph glyph-name="exclam" unicode="&#x21;" horiz-adv-x="627" d="M176 443 L447 443 L495 746 L495 1360 L128 1360 L128 748 L176 443 Z M120 149 C120 51 196 -31 312 -31 C431 -31 507 49 507 149 C507 247 431 329 312 329 C195 329 120 247 120 149 L120 149 Z " />
<glyph glyph-name="quotedbl" unicode="&#x22;" horiz-adv-x="1003" d="M880 1397 L542 1397 L570 809 L849 809 L880 1397 Z M463 1397 L125 1397 L153 809 L431 809 L463 1397 Z " />
<glyph glyph-name="numbersign" unicode="&#x23;" horiz-adv-x="1265" d="M665 562 L566 562 L601 777 L699 777 L665 562 Z M524 298 L622 298 L581 39 L904 39 L945 298 L1115 298 L1119 562 L987 562 L1022 777 L1184 777 L1189 1040 L1064 1040 L1115 1360 L793 1360 L741 1040 L643 1040 L694 1360 L371 1360 L319 1040 L152 1040 L146 777 L277 777 L243 562 L83 562 L76 298 L200 298 L159 39 L483 39 L524 298 Z " />
<glyph glyph-name="dollar" unicode="&#x24;" horiz-adv-x="1330" d="M475 -227 L831 -227 L831 -22 C1075 21 1251 161 1251 391 C1251 679 1057 768 750 844 C609 874 495 909 495 983 C495 1033 526 1079 662 1079 C802 1079 831 1011 831 950 L1209 950 C1209 1185 1077 1344 830 1384 L830 1597 L475 1597 L475 1373 C234 1321 118 1175 118 945 C118 676 422 616 559 574 C760 509 870 506 870 392 C870 325 824 279 670 279 C515 279 441 333 441 433 L65 433 C65 242 171 39 475 -19 L475 -227 Z " />
<glyph glyph-name="percent" unicode="&#x25;" horiz-adv-x="1856" d="M1394 -30 C1614 -30 1785 124 1785 324 C1785 526 1616 678 1397 678 C1177 678 1006 522 1006 321 C1006 124 1177 -30 1394 -30 L1394 -30 Z M1397 216 C1342 216 1310 264 1310 323 C1310 387 1342 433 1396 433 C1450 433 1483 385 1483 321 C1483 262 1451 216 1397 216 L1397 216 Z M686 -2 L1525 1358 L1190 1358 L356 -2 L686 -2 Z M463 682 C682 682 854 837 854 1037 C854 1239 685 1391 464 1391 C244 1391 74 1235 74 1035 C74 837 245 682 463 682 L463 682 Z M465 930 C410 930 378 976 378 1036 C378 1100 410 1146 464 1146 C519 1146 551 1098 551 1034 C551 975 519 930 465 930 L465 930 Z " />
<glyph glyph-name="ampersand" unicode="&#x26;" horiz-adv-x="1523" d="M598 272 C524 272 430 314 430 406 C430 482 482 525 544 564 L771 310 C715 285 656 272 598 272 L598 272 Z M571 1022 C571 1068 596 1109 647 1109 C692 1109 720 1078 720 1031 C720 965 664 935 624 913 C600 946 571 975 571 1022 L571 1022 Z M1240 284 C1345 406 1415 555 1418 719 L1087 720 C1084 655 1062 590 1026 531 L866 717 C987 793 1085 908 1085 1038 C1085 1274 903 1394 632 1395 C396 1396 205 1271 205 1057 C205 922 273 837 344 778 C219 704 62 604 62 396 C62 137 320 -33 610 -33 C729 -33 860 5 982 73 L1048 0 L1486 0 L1240 284 Z " />
<glyph glyph-name="quotesingle" unicode="&#x27;" horiz-adv-x="583" d="M462 1397 L124 1397 L152 809 L430 809 L462 1397 Z " />
<glyph glyph-name="parenleft" unicode="&#x28;" horiz-adv-x="762" d="M403 1637 C154 1322 86 1020 86 679 C86 347 158 19 406 -276 L743 -276 C575 -41 453 363 453 680 C453 995 595 1437 742 1637 L403 1637 Z " />
<glyph glyph-name="parenright" unicode="&#x29;" horiz-adv-x="762" d="M-3 1637 C145 1437 286 995 286 680 C286 363 163 -41 -4 -276 L333 -276 C581 19 653 347 653 679 C653 1020 585 1322 336 1637 L-3 1637 Z " />
<glyph glyph-name="asterisk" unicode="&#x2a;" horiz-adv-x="838" d="M183 1344 L75 1161 L235 1085 L75 1009 L183 827 L327 928 L312 751 L526 751 L513 927 L514 927 L657 827 L765 1010 L605 1086 L765 1162 L656 1345 L513 1244 L513 1246 L528 1421 L312 1421 L327 1246 L327 1243 L183 1344 Z " />
<glyph glyph-name="plus" unicode="&#x2b;" horiz-adv-x="1155" d="M414 1105 L415 774 L105 773 L105 481 L415 481 L415 153 L718 153 L718 481 L1036 481 L1036 774 L718 774 L717 1105 L414 1105 Z " />
<glyph glyph-name="comma" unicode="&#x2c;" horiz-adv-x="572" d="M15 -246 L282 -246 L489 256 L138 256 L15 -246 Z " />
<glyph glyph-name="hyphen" unicode="&#x2d;" horiz-adv-x="877" d="M122 342 L770 342 L770 638 L122 638 L122 342 Z " />
<glyph glyph-name="period" unicode="&#x2e;" horiz-adv-x="570" d="M91 148 C91 50 167 -32 284 -32 C403 -32 479 49 479 148 C479 246 403 329 285 329 C167 329 91 246 91 148 L91 148 Z " />
<glyph glyph-name="slash" unicode="&#x2f;" horiz-adv-x="959" d="M299 -208 L951 1424 L582 1424 L-72 -209 L299 -208 Z " />
<glyph glyph-name="zero" unicode="0" horiz-adv-x="1422" d="M727 -35 C1147 -35 1338 293 1338 680 C1338 1048 1177 1396 727 1396 C320 1396 116 1072 116 675 C116 294 301 -35 727 -35 L727 -35 Z M727 267 C542 267 481 481 481 679 C481 872 545 1094 726 1094 C908 1094 972 868 972 680 C972 481 903 267 727 267 L727 267 Z " />
<glyph glyph-name="one" unicode="1" horiz-adv-x="808" d="M296 0 L654 0 L654 1361 L363 1361 L80 1259 L81 1003 L303 1079 L296 0 Z " />
<glyph glyph-name="two" unicode="2" horiz-adv-x="1239" d="M55 0 L1127 0 L1127 302 L804 302 C720 302 648 284 648 284 L854 458 C1014 584 1096 740 1096 927 C1096 1176 926 1392 578 1392 C155 1392 69 1081 69 907 L441 907 C441 1029 500 1087 588 1087 C675 1087 728 1023 728 925 C728 790 638 693 449 538 L55 204 L55 0 Z " />
<glyph glyph-name="three" unicode="3" horiz-adv-x="1160" d="M974 1360 L81 1360 L81 1058 L495 1058 L295 783 L295 598 L567 596 C682 595 746 522 746 427 C746 335 677 266 566 266 C471 266 412 323 404 424 L39 424 C48 80 289 -35 586 -35 C879 -35 1112 164 1112 436 C1112 715 934 813 789 851 C763 860 726 865 726 865 L974 1171 L974 1360 Z " />
<glyph glyph-name="four" unicode="4" horiz-adv-x="1346" d="M496 554 L705 872 L705 554 L496 554 Z M1250 254 L1250 557 L1070 557 L1069 1362 L654 1363 L63 485 L90 254 L705 255 L705 0 L1070 0 L1070 255 L1250 254 Z " />
<glyph glyph-name="five" unicode="5" horiz-adv-x="1202" d="M514 1058 L1009 1058 L1009 1361 L187 1361 L104 722 L254 588 L570 586 C685 585 749 522 749 427 C749 335 680 266 569 266 C474 266 415 323 407 424 L42 424 C51 80 292 -35 589 -35 C882 -35 1115 164 1115 436 C1115 715 936 887 645 887 L496 887 L514 1058 Z " />
<glyph glyph-name="six" unicode="6" horiz-adv-x="1197" d="M414 443 C414 533 492 620 588 620 C678 620 758 545 758 443 C758 340 678 268 588 268 C499 268 414 340 414 443 L414 443 Z M51 448 C51 181 252 -33 586 -33 C920 -33 1122 181 1122 448 C1122 701 914 896 714 896 C676 896 647 886 621 870 L942 1360 L509 1360 L209 876 C92 686 51 594 51 448 L51 448 Z " />
<glyph glyph-name="seven" unicode="7" horiz-adv-x="1123" d="M115 0 L513 0 L1060 1174 L1060 1360 L55 1360 L55 1058 L613 1058 L115 0 Z " />
<glyph glyph-name="eight" unicode="8" horiz-adv-x="1215" d="M432 419 C432 510 511 568 606 568 C701 568 780 510 780 419 C780 331 701 268 606 268 C511 268 432 331 432 419 L432 419 Z M483 983 C483 1040 531 1094 606 1094 C680 1094 726 1040 726 983 C726 925 681 870 606 870 C530 870 483 925 483 983 L483 983 Z M119 1001 C119 885 196 763 274 735 C178 706 66 594 66 403 C66 153 255 -35 608 -35 C954 -35 1147 153 1147 403 C1147 594 1039 706 937 734 C1017 758 1094 885 1094 1002 C1094 1268 882 1395 608 1395 C345 1395 119 1268 119 1001 L119 1001 Z " />
<glyph glyph-name="nine" unicode="9" horiz-adv-x="1209" d="M773 919 C773 829 694 742 599 742 C509 742 430 817 430 919 C430 1021 509 1095 599 1095 C687 1095 773 1021 773 919 L773 919 Z M1136 914 C1136 1181 935 1395 602 1395 C267 1395 65 1181 65 914 C65 662 272 467 473 467 C510 467 540 476 565 492 L243 0 L676 0 L978 486 C1096 676 1136 769 1136 914 L1136 914 Z " />
<glyph glyph-name="colon" unicode="&#x3a;" horiz-adv-x="570" d="M91 146 C91 49 167 -34 284 -34 C403 -34 479 47 479 146 C479 244 403 327 285 327 C167 327 91 244 91 146 L91 146 Z M91 874 C91 775 167 693 284 693 C403 693 479 774 479 874 C479 971 403 1054 285 1054 C167 1054 91 971 91 874 L91 874 Z " />
<glyph glyph-name="semicolon" unicode="&#x3b;" horiz-adv-x="570" d="M15 -246 L282 -246 L489 256 L138 256 L15 -246 Z M91 874 C91 821 112 770 154 737 L177 720 C192 712 208 704 226 700 C231 698 236 697 242 696 C244 696 247 696 250 695 C261 694 272 693 284 693 C296 693 307 694 318 695 C329 697 340 699 350 702 C355 703 359 705 364 707 C374 710 383 715 391 720 C406 726 425 744 436 756 L456 784 L468 810 L474 830 L477 844 C477 849 478 854 478 859 C479 864 479 869 479 874 C479 879 479 883 478 888 C477 907 472 926 465 943 L456 962 L452 967 C450 971 447 976 444 979 C439 987 433 994 426 1000 C423 1004 419 1007 415 1010 L410 1014 C395 1026 377 1035 358 1042 L350 1044 C348 1045 345 1046 343 1046 C340 1047 337 1048 335 1048 L319 1051 C313 1052 308 1053 302 1053 C299 1053 297 1054 294 1054 L276 1054 C207 1050 143 1019 110 955 L107 949 C103 941 93 911 93 902 L91 888 L91 874 Z " />
<glyph glyph-name="less" unicode="&#x3c;" horiz-adv-x="1249" d="M118 720 L118 498 L1047 68 L1047 409 L550 608 L1047 810 L1047 1150 L118 720 Z " />
<glyph glyph-name="equal" unicode="&#x3d;" horiz-adv-x="1393" d="M231 993 L231 700 L1161 700 L1161 993 L231 993 Z M231 519 L231 227 L1161 227 L1161 520 L231 519 Z " />
<glyph glyph-name="greater" unicode="&#x3e;" horiz-adv-x="1249" d="M203 1067 L203 727 L700 525 L203 326 L203 -16 L1131 415 L1131 637 L203 1067 Z " />
<glyph glyph-name="question" unicode="&#x3f;" horiz-adv-x="1003" d="M601 443 L601 478 C601 551 636 582 726 646 C840 729 967 794 967 986 C967 1236 752 1396 493 1396 C149 1396 -4 1232 -4 961 L363 961 C363 1048 397 1092 480 1092 C565 1092 600 1050 600 983 C600 918 497 898 399 805 C316 725 275 641 275 479 L275 443 L601 443 Z M251 148 C251 50 328 -32 444 -32 C563 -32 640 49 640 148 C640 246 563 329 445 329 C327 329 251 246 251 148 L251 148 Z " />
<glyph glyph-name="at" unicode="&#x40;" horiz-adv-x="2072" d="M1054 445 C1048 400 1009 339 963 339 C912 339 894 400 896 443 C902 554 946 611 1002 630 C1007 632 1012 632 1018 632 C1041 632 1068 621 1080 605 L1054 445 Z M1063 -114 C643 -112 425 105 425 502 C425 848 728 1084 1065 1084 C1414 1084 1640 911 1640 607 C1640 372 1516 309 1463 309 C1426 309 1392 321 1406 416 L1475 872 L1122 873 L1112 817 C1080 884 987 908 914 908 C891 908 871 906 854 902 C675 855 549 678 549 439 C549 265 629 130 766 86 C793 78 829 73 869 73 C963 73 1077 101 1138 189 C1171 85 1282 21 1433 21 C1716 21 2001 168 2001 611 C2001 1063 1601 1378 1069 1378 C520 1378 71 1025 71 502 C71 -25 376 -412 1070 -409 L1545 -407 L1545 -116 L1063 -114 Z " />
<glyph glyph-name="A" unicode="A" horiz-adv-x="1500" d="M750 873 L760 823 L886 495 L609 495 L735 823 L746 873 L750 873 Z M924 1361 L572 1361 L22 0 L420 0 L490 184 L1005 184 L1076 0 L1474 0 L924 1361 Z " />
<glyph glyph-name="B" unicode="B" horiz-adv-x="1340" d="M760 556 C830 556 889 510 889 430 C889 334 805 300 761 300 L504 300 L504 556 L760 556 Z M721 1059 C768 1059 821 1012 821 944 C821 873 766 831 720 831 L504 831 L504 1059 L721 1059 Z M800 0 C1030 0 1278 105 1278 414 C1278 557 1169 674 1046 722 C1127 754 1204 864 1204 973 C1204 1225 1027 1360 743 1360 L127 1360 L127 0 L800 0 Z " />
<glyph glyph-name="C" unicode="C" horiz-adv-x="1655" d="M1559 834 C1491 1221 1127 1395 836 1395 C421 1395 86 1078 86 682 C86 287 421 -33 836 -33 C1130 -33 1489 153 1558 525 L1173 525 C1128 363 980 281 836 281 C629 281 462 453 462 681 C462 910 629 1081 836 1081 C981 1081 1130 996 1175 835 L1559 834 Z " />
<glyph glyph-name="D" unicode="D" horiz-adv-x="1528" d="M505 314 L505 1045 L697 1045 C942 1045 1059 907 1059 677 C1059 439 931 314 697 314 L505 314 Z M128 0 L705 0 C1174 0 1435 276 1435 681 C1435 1125 1116 1360 702 1360 L128 1360 L128 0 Z " />
<glyph glyph-name="E" unicode="E" horiz-adv-x="1204" d="M127 0 L1118 0 L1118 314 L504 314 L504 516 L1020 516 L1020 829 L504 829 L504 1046 L1109 1046 L1109 1360 L127 1360 L127 0 Z " />
<glyph glyph-name="F" unicode="F" horiz-adv-x="1175" d="M127 0 L504 0 L504 461 L1020 461 L1020 775 L504 775 L504 1046 L1109 1046 L1109 1360 L127 1360 L127 0 Z " />
<glyph glyph-name="G" unicode="G" horiz-adv-x="1619" d="M823 477 L1154 477 C1121 355 1024 281 836 281 C629 281 462 453 462 681 C462 910 629 1081 836 1081 C957 1081 1061 1024 1126 937 L1371 1182 C1232 1316 1044 1395 836 1395 C421 1395 86 1078 86 682 C86 287 421 -33 836 -33 C1249 -33 1553 275 1528 741 L824 741 L823 477 Z " />
<glyph glyph-name="H" unicode="H" horiz-adv-x="1520" d="M127 0 L504 0 L504 516 L1015 516 L1015 0 L1393 0 L1393 1360 L1015 1360 L1015 829 L504 829 L504 1360 L127 1360 L127 0 Z " />
<glyph glyph-name="I" unicode="I" horiz-adv-x="632" d="M127 0 L504 0 L504 1360 L127 1360 L127 0 Z " />
<glyph glyph-name="J" unicode="J" horiz-adv-x="875" d="M51 0 L239 0 C532 0 757 158 757 461 L757 1360 L383 1360 L382 462 C382 366 326 315 240 315 L51 315 L51 0 Z " />
<glyph glyph-name="K" unicode="K" horiz-adv-x="1428" d="M504 1360 L127 1360 L127 0 L504 0 L504 255 L677 483 L965 0 L1409 0 L923 753 L1393 1360 L956 1360 L504 752 L504 1360 Z " />
<glyph glyph-name="L" unicode="L" horiz-adv-x="1113" d="M127 0 L1036 0 L1036 314 L504 314 L504 1360 L127 1360 L127 0 Z " />
<glyph glyph-name="M" unicode="M" horiz-adv-x="1687" d="M888 331 L1185 761 L1185 0 L1561 0 L1561 1360 L1233 1360 L842 819 L459 1360 L127 1360 L127 0 L504 0 L504 765 L796 331 L888 331 Z " />
<glyph glyph-name="N" unicode="N" horiz-adv-x="1528" d="M1401 1360 L1025 1360 L1025 631 L458 1360 L127 1360 L127 0 L504 0 L504 732 L1074 0 L1401 0 L1401 1360 Z " />
<glyph glyph-name="O" unicode="O" horiz-adv-x="1673" d="M86 682 C86 287 421 -33 836 -33 C1249 -33 1586 287 1586 682 C1586 1078 1249 1395 836 1395 C421 1395 86 1078 86 682 L86 682 Z M462 681 C462 910 629 1081 836 1081 C1045 1081 1210 910 1210 681 C1210 453 1045 281 836 281 C629 281 462 453 462 681 L462 681 Z " />
<glyph glyph-name="P" unicode="P" horiz-adv-x="1285" d="M504 1046 L712 1046 C792 1046 858 967 858 877 C858 784 791 711 711 711 L504 711 L504 1046 Z M733 397 C1025 397 1235 593 1235 877 C1235 1157 1023 1360 728 1360 L127 1360 L127 0 L504 0 L504 397 L733 397 Z " />
<glyph glyph-name="Q" unicode="Q" horiz-adv-x="1673" d="M462 681 C462 910 629 1081 836 1081 C1045 1081 1210 910 1210 681 C1210 453 1045 281 836 281 C629 281 462 453 462 681 L462 681 Z M86 682 C86 287 421 -33 836 -33 C958 -33 1073 -5 1175 44 L1382 -164 L1632 82 L1446 267 C1534 384 1586 527 1586 682 C1586 1078 1249 1395 836 1395 C421 1395 86 1078 86 682 L86 682 Z " />
<glyph glyph-name="R" unicode="R" horiz-adv-x="1316" d="M504 1046 L716 1046 C796 1046 862 978 862 889 C862 796 796 735 715 735 L504 735 L504 1046 Z M999 480 C1146 556 1239 700 1239 889 C1239 1168 1028 1360 732 1360 L127 1360 L127 0 L504 0 L504 421 L630 421 L842 0 L1273 0 L999 480 Z " />
<glyph glyph-name="S" unicode="S" horiz-adv-x="1337" d="M67 433 C67 207 216 -36 664 -36 C992 -36 1254 111 1254 391 C1254 679 1060 768 752 844 C611 874 497 909 497 983 C497 1033 528 1079 664 1079 C804 1079 833 1011 833 950 L1211 950 C1211 1224 1031 1395 699 1395 C307 1395 120 1237 120 945 C120 676 424 616 562 574 C763 509 872 506 872 392 C872 325 826 279 672 279 C517 279 443 333 443 433 L67 433 Z " />
<glyph glyph-name="T" unicode="T" horiz-adv-x="1176" d="M401 0 L776 0 L776 1046 L1134 1046 L1134 1360 L42 1360 L42 1046 L401 1046 L401 0 Z " />
<glyph glyph-name="U" unicode="U" horiz-adv-x="1454" d="M961 523 C961 380 878 278 726 278 C571 278 489 380 489 522 L489 1360 L113 1360 L113 524 C113 179 380 -33 726 -33 C1102 -33 1338 203 1338 524 L1338 1360 L961 1360 L961 523 Z " />
<glyph glyph-name="V" unicode="V" horiz-adv-x="1521" d="M762 496 L757 496 L432 1361 L34 1361 L591 0 L928 0 L1486 1361 L1088 1361 L762 496 Z " />
<glyph glyph-name="W" unicode="W" horiz-adv-x="2106" d="M1248 1358 L851 1358 L663 527 L658 527 L417 1361 L19 1361 L474 0 L835 0 L1050 718 L1264 0 L1625 0 L2080 1361 L1682 1361 L1442 527 L1438 527 L1248 1358 Z " />
<glyph glyph-name="X" unicode="X" horiz-adv-x="1495" d="M521 1360 L80 1360 L512 717 L24 0 L467 0 L747 439 L1028 0 L1471 0 L983 717 L1414 1360 L973 1360 L747 999 L521 1360 Z " />
<glyph glyph-name="Y" unicode="Y" horiz-adv-x="1434" d="M980 1360 L719 845 L716 845 L454 1360 L18 1360 L529 511 L529 0 L906 0 L905 513 L1419 1360 L980 1360 Z " />
<glyph glyph-name="Z" unicode="Z" horiz-adv-x="1294" d="M1215 0 L1215 314 L563 314 L1198 1090 L1199 1360 L108 1360 L108 1047 L700 1047 L67 276 L72 0 L1215 0 Z " />
<glyph glyph-name="bracketleft" unicode="&#x5b;" horiz-adv-x="759" d="M717 -9 L482 -9 L482 1369 L717 1369 L717 1663 L127 1663 L127 -303 L717 -303 L717 -9 Z " />
<glyph glyph-name="backslash" unicode="&#x5c;" horiz-adv-x="979" d="M1021 -192 L368 1440 L-2 1440 L651 -191 L1021 -192 Z " />
<glyph glyph-name="bracketright" unicode="&#x5d;" horiz-adv-x="755" d="M37 -303 L628 -303 L628 1663 L37 1663 L37 1369 L274 1369 L274 -9 L37 -9 L37 -303 Z " />
<glyph glyph-name="asciicircum" unicode="&#x5e;" horiz-adv-x="1133" d="M457 754 L566 1038 L673 754 L1026 757 L647 1437 L483 1437 L105 757 L457 754 Z " />
<glyph glyph-name="underscore" unicode="&#x5f;" horiz-adv-x="1081" d="M1060 -51 L20 -51 L20 -348 L1060 -348 L1060 -51 Z " />
<glyph glyph-name="grave" unicode="&#x60;" horiz-adv-x="468" d="M-46 1393 L159 1153 L416 1153 L220 1486 L-46 1393 Z " />
<glyph glyph-name="a" unicode="a" horiz-adv-x="1395" d="M455 522 C455 675 553 771 683 771 C810 771 912 674 912 522 C912 366 812 270 685 270 C558 270 455 367 455 522 L455 522 Z M88 521 C88 216 299 -35 647 -35 C767 -35 867 6 939 56 L951 0 L1262 0 L1262 1043 L951 1043 L939 988 C868 1037 770 1078 648 1078 C297 1078 88 825 88 521 L88 521 Z " />
<glyph glyph-name="b" unicode="b" horiz-adv-x="1394" d="M938 522 C938 367 835 270 709 270 C581 270 481 366 481 522 C481 674 583 771 711 771 C840 771 938 675 938 522 L938 522 Z M1306 521 C1306 825 1103 1079 753 1079 C648 1079 564 1052 498 1013 L498 1409 L132 1409 L132 0 L443 0 L455 56 C527 6 626 -36 746 -36 C1094 -36 1306 216 1306 521 L1306 521 Z " />
<glyph glyph-name="c" unicode="c" horiz-adv-x="1317" d="M455 522 C455 679 554 771 675 771 C762 771 837 722 873 638 L1247 639 C1193 891 981 1079 673 1079 C322 1079 87 824 88 521 C88 218 323 -35 673 -35 C981 -35 1198 156 1247 406 L873 406 C837 321 762 273 675 273 C554 273 455 365 455 522 L455 522 Z " />
<glyph glyph-name="d" unicode="d" horiz-adv-x="1412" d="M455 522 C455 675 554 771 683 771 C811 771 913 674 913 522 C913 366 812 270 685 270 C558 270 455 367 455 522 L455 522 Z M88 521 C88 216 300 -36 647 -36 C767 -36 865 7 937 62 L951 0 L1262 0 L1262 1409 L895 1409 L895 1013 C828 1052 744 1079 641 1079 C290 1079 88 825 88 521 L88 521 Z " />
<glyph glyph-name="e" unicode="e" horiz-adv-x="1352" d="M676 795 C770 795 834 745 868 670 L470 670 C507 746 577 795 676 795 L676 795 Z M89 521 C90 218 325 -35 674 -35 C983 -35 1178 158 1233 342 L836 342 C810 295 754 257 676 257 C582 257 492 321 456 423 L1253 423 C1258 450 1264 473 1264 521 C1264 826 1027 1078 674 1078 C324 1078 89 825 89 521 L89 521 Z " />
<glyph glyph-name="f" unicode="f" horiz-adv-x="910" d="M218 0 L587 0 L587 738 L855 738 L855 1043 L587 1043 L587 1071 C587 1142 621 1200 713 1200 L855 1199 L855 1489 L621 1489 C311 1489 218 1269 218 1078 L218 1043 L36 1043 L36 738 L218 738 L218 0 Z " />
<glyph glyph-name="g" unicode="g" horiz-adv-x="1390" d="M455 522 C455 675 554 771 683 771 C810 771 913 674 913 522 C913 366 812 270 685 270 C558 270 455 367 455 522 L455 522 Z M87 521 C87 216 298 -13 612 -13 C731 -13 828 24 901 72 L901 46 C901 -35 859 -167 694 -167 C585 -167 536 -118 512 -46 L163 -47 C169 -242 305 -462 695 -462 C1033 -462 1262 -264 1262 66 L1262 1043 L967 1043 L950 980 C878 1033 776 1078 648 1078 C297 1078 87 825 87 521 L87 521 Z " />
<glyph glyph-name="h" unicode="h" horiz-adv-x="1349" d="M1235 558 C1235 875 1100 1078 763 1078 C663 1078 569 1040 494 995 L496 1409 L132 1409 L132 0 L498 0 L498 541 C498 672 571 771 689 771 C795 771 867 732 867 551 L867 0 L1235 0 L1235 558 Z " />
<glyph glyph-name="i" unicode="i" horiz-adv-x="632" d="M132 0 L501 0 L501 1043 L132 1043 L132 0 Z M106 1314 C106 1214 191 1131 318 1131 C449 1131 533 1212 533 1314 C533 1414 449 1497 319 1497 C190 1497 106 1414 106 1314 L106 1314 Z " />
<glyph glyph-name="j" unicode="j" horiz-adv-x="633" d="M106 1314 C106 1214 191 1131 318 1131 C449 1131 533 1212 533 1314 C533 1414 449 1497 319 1497 C190 1497 106 1414 106 1314 L106 1314 Z M132 1043 L132 31 C132 -56 93 -101 40 -101 L-75 -101 L-75 -403 L55 -403 C297 -403 502 -282 502 27 L502 1043 L132 1043 Z " />
<glyph glyph-name="k" unicode="k" horiz-adv-x="1258" d="M132 0 L498 0 L498 247 L601 379 L799 0 L1234 0 L865 612 L1202 1043 L773 1043 L498 666 L498 1409 L132 1409 L132 0 Z " />
<glyph glyph-name="l" unicode="l" horiz-adv-x="648" d="M132 0 L498 0 L498 1409 L132 1409 L132 0 Z " />
<glyph glyph-name="m" unicode="m" horiz-adv-x="1988" d="M1879 559 C1879 876 1725 1078 1421 1078 C1262 1078 1142 1022 1057 957 C981 1033 874 1078 743 1078 C624 1078 520 1034 443 985 L425 1043 L132 1043 L132 0 L498 0 L498 536 C498 683 566 771 685 771 C780 771 820 700 820 551 L820 0 L1189 0 L1189 551 C1192 686 1260 771 1376 771 C1470 771 1511 700 1511 551 L1511 0 L1879 0 L1879 559 Z " />
<glyph glyph-name="n" unicode="n" horiz-adv-x="1342" d="M1235 557 C1235 874 1100 1078 763 1078 C649 1078 530 1033 444 981 L425 1043 L132 1043 L132 0 L498 0 L498 514 C498 660 571 771 709 771 C795 771 867 722 867 549 L867 0 L1235 0 L1235 557 Z " />
<glyph glyph-name="o" unicode="o" horiz-adv-x="1352" d="M89 521 C89 216 325 -35 672 -35 C1027 -35 1263 214 1263 521 C1263 826 1027 1078 674 1078 C324 1078 89 825 89 521 L89 521 Z M456 522 C456 675 552 771 676 771 C799 771 896 674 896 522 C896 367 801 271 677 271 C555 271 456 368 456 522 L456 522 Z " />
<glyph glyph-name="p" unicode="p" horiz-adv-x="1395" d="M938 521 C938 368 840 272 711 272 C583 272 481 369 481 521 C481 677 581 773 709 773 C835 773 938 675 938 521 L938 521 Z M1306 522 C1306 827 1094 1078 746 1078 C619 1078 517 1031 444 977 L426 1043 L132 1043 L132 -356 L498 -356 L498 30 C564 -8 648 -35 753 -35 C1103 -35 1306 218 1306 522 L1306 522 Z " />
<glyph glyph-name="q" unicode="q" horiz-adv-x="1412" d="M456 522 C456 676 559 774 685 774 C813 774 913 678 913 522 C913 370 811 273 684 273 C554 273 456 368 456 522 L456 522 Z M89 523 C89 219 290 -35 641 -35 C745 -35 829 -8 896 31 L898 -355 L1262 -355 L1262 1044 L968 1044 L945 961 C872 1025 772 1080 648 1080 C300 1080 89 828 89 523 L89 523 Z " />
<glyph glyph-name="r" unicode="r" horiz-adv-x="928" d="M870 1043 L711 1043 C594 1043 508 1007 445 962 L421 1043 L127 1043 L127 0 L494 0 L494 475 C494 646 578 731 732 732 L870 733 L870 1043 Z " />
<glyph glyph-name="s" unicode="s" horiz-adv-x="1099" d="M57 335 C57 160 183 -36 525 -36 C817 -36 1037 78 1037 339 C1037 569 858 623 625 666 C505 686 461 692 460 731 C459 762 494 788 552 788 C609 788 636 755 639 718 L1009 717 C1009 932 849 1078 579 1078 C258 1078 94 955 94 727 C94 482 286 433 395 408 C566 366 651 365 652 314 C652 277 621 255 539 255 C470 255 424 284 418 334 L57 335 Z " />
<glyph glyph-name="t" unicode="t" horiz-adv-x="934" d="M190 1080 L41 1008 L41 738 L199 738 L199 412 C199 50 404 -4 648 -4 L851 -4 L854 287 L683 287 C614 287 565 313 565 416 L565 738 L842 738 L842 1043 L566 1043 L566 1327 L304 1325 L190 1080 Z " />
<glyph glyph-name="u" unicode="u" horiz-adv-x="1298" d="M649 272 C543 272 472 317 472 498 L472 1043 L103 1043 L103 486 C103 99 344 -35 649 -35 C955 -35 1196 99 1196 486 L1196 1043 L827 1043 L827 498 C827 317 755 272 649 272 L649 272 Z " />
<glyph glyph-name="v" unicode="v" horiz-adv-x="1246" d="M816 1043 L615 480 L612 480 L412 1043 L19 1043 L451 0 L778 0 L1211 1043 L816 1043 Z " />
<glyph glyph-name="w" unicode="w" horiz-adv-x="1759" d="M1336 1043 L1170 480 L1166 480 L1009 1040 L747 1040 L590 480 L587 480 L421 1043 L27 1043 L386 0 L713 0 L876 491 L1043 0 L1371 0 L1731 1043 L1336 1043 Z " />
<glyph glyph-name="x" unicode="x" horiz-adv-x="1230" d="M47 1043 L364 548 L23 0 L448 0 L612 296 L772 0 L1208 0 L866 548 L1181 1043 L752 1043 L615 786 L480 1043 L47 1043 Z " />
<glyph glyph-name="y" unicode="y" horiz-adv-x="1250" d="M817 1041 L610 491 L589 564 L410 1042 L5 1042 L417 77 L209 -359 L606 -359 L1211 1043 L817 1041 Z " />
<glyph glyph-name="z" unicode="z" horiz-adv-x="1144" d="M65 0 L1057 0 L1057 306 L593 306 L1032 821 L1032 1043 L92 1043 L92 738 L510 738 L65 218 L65 0 Z " />
<glyph glyph-name="braceleft" unicode="&#x7b;" horiz-adv-x="799" d="M439 678 C527 734 576 816 576 971 L576 1248 C576 1372 618 1380 749 1383 L747 1667 C734 1667 722 1668 709 1668 C391 1668 221 1532 222 1270 L223 1044 C223 864 195 825 49 818 L49 539 C205 532 223 487 223 313 L222 87 C221 -175 391 -312 709 -312 C722 -312 734 -311 747 -311 L749 -27 C611 -23 576 -14 576 132 L576 385 C576 497 544 625 439 678 L439 678 Z " />
<glyph glyph-name="bar" unicode="&#x7c;" horiz-adv-x="625" d="M134 -388 L490 -388 L490 1643 L134 1643 L134 -388 Z " />
<glyph glyph-name="braceright" unicode="&#x7d;" horiz-adv-x="799" d="M358 678 C252 625 220 497 220 385 L220 132 C220 -14 186 -23 48 -27 L49 -311 C62 -311 74 -312 87 -312 C406 -312 576 -175 575 87 L574 313 C573 487 591 532 748 539 L748 818 C602 825 573 864 574 1044 L575 1270 C576 1532 406 1668 87 1668 C75 1668 62 1667 49 1667 L48 1383 C179 1380 220 1372 220 1248 L220 971 C220 816 269 734 358 678 L358 678 Z " />
<glyph glyph-name="asciitilde" unicode="&#x7e;" horiz-adv-x="1212" d="M1057 785 C991 742 923 707 816 707 C693 707 551 822 390 822 C276 822 171 763 113 719 L156 451 C220 498 302 531 395 531 C509 531 662 414 822 414 C936 414 1045 473 1100 518 L1057 785 Z " />
<glyph glyph-name="exclamdown" unicode="&#xa1;" horiz-adv-x="621" d="M127 277 L127 -335 L494 -335 L494 279 L446 582 L175 582 L127 277 Z M118 877 C118 779 194 696 311 696 C430 696 506 779 506 877 C506 976 430 1057 311 1057 C194 1057 118 974 118 877 L118 877 Z " />
<glyph glyph-name="cent" unicode="&#xa2;" horiz-adv-x="1348" d="M503 -165 L848 -165 L848 -12 C1062 45 1208 206 1247 406 L873 406 C837 321 762 273 675 273 C554 273 455 365 455 522 C455 679 554 771 675 771 C762 771 837 722 873 638 L1247 639 C1204 839 1062 998 851 1056 L851 1256 L504 1256 L504 1057 C248 990 87 772 88 521 C88 270 249 53 503 -13 L503 -165 Z " />
<glyph glyph-name="sterling" unicode="&#xa3;" horiz-adv-x="1182" d="M99 783 L99 483 L222 483 C194 371 143 266 72 234 L72 0 L1128 0 L1128 302 L522 302 C552 334 577 404 593 483 L849 483 L846 783 L601 783 C587 859 565 913 565 976 C565 1059 599 1093 662 1093 C734 1093 755 1007 755 933 L1116 934 C1116 1285 858 1395 652 1395 C388 1395 190 1280 190 1004 C190 938 217 868 233 783 L99 783 Z " />
<glyph glyph-name="currency" unicode="&#xa4;" horiz-adv-x="1371" d="M498 627 C498 764 581 849 688 849 C795 849 879 762 879 627 C879 490 796 406 689 406 C583 406 498 491 498 627 L498 627 Z M144 626 C144 545 162 469 195 401 L72 279 L337 18 L469 150 C533 125 606 111 685 111 C764 111 838 124 903 149 L1033 19 L1299 279 L1179 398 C1212 467 1231 544 1231 626 C1231 709 1212 788 1177 858 L1299 980 L1034 1241 L899 1106 C835 1130 764 1144 686 1144 C608 1144 536 1130 472 1105 L337 1241 L71 981 L196 856 C162 786 144 708 144 626 L144 626 Z " />
<glyph glyph-name="yen" unicode="&#xa5;" horiz-adv-x="1324" d="M1189 804 L937 803 L1290 1360 L882 1360 L661 950 L439 1360 L31 1360 L382 803 L135 803 L135 545 L1189 545 L1189 804 Z M135 441 L135 184 L483 184 L483 0 L838 0 L838 184 L1189 184 L1189 441 L135 441 Z " />
<glyph glyph-name="brokenbar" unicode="&#xa6;" horiz-adv-x="627" d="M492 1643 L136 1643 L136 794 L492 794 L492 1643 Z M136 -388 L492 -388 L492 458 L136 458 L136 -388 Z " />
<glyph glyph-name="section" unicode="&#xa7;" horiz-adv-x="1351" d="M512 479 C512 558 568 602 641 607 C744 583 839 556 839 467 C839 387 784 344 710 339 C607 360 512 393 512 479 L512 479 Z M1214 1322 C1054 1409 897 1456 734 1456 C466 1456 272 1347 223 1149 C214 1109 209 1067 211 1023 C219 929 252 859 299 804 C199 740 135 629 135 481 C135 213 360 99 573 40 C705 3 782 -12 782 -97 C782 -170 714 -195 619 -195 C490 -195 361 -127 304 -90 L138 -376 C297 -462 454 -510 617 -510 C885 -510 1080 -401 1129 -204 C1138 -163 1142 -121 1140 -77 C1132 17 1100 86 1051 142 C1151 206 1217 317 1217 465 C1217 734 992 847 778 906 C646 943 569 958 569 1044 C569 1116 637 1141 733 1141 C861 1141 990 1073 1047 1036 L1214 1322 Z " />
<glyph glyph-name="dieresis" unicode="&#xa8;" horiz-adv-x="867" d="M83 1294 C83 1221 144 1162 240 1162 C335 1162 397 1221 397 1294 C397 1366 336 1425 240 1425 C145 1425 83 1366 83 1294 L83 1294 Z M491 1294 C491 1221 551 1162 647 1162 C742 1162 805 1221 805 1294 C805 1366 743 1425 647 1425 C553 1425 491 1366 491 1294 L491 1294 Z " />
<glyph glyph-name="copyright" unicode="&#xa9;" horiz-adv-x="1643" d="M285 682 C285 1010 523 1215 822 1215 C1123 1215 1358 1010 1358 682 C1358 354 1123 147 822 147 C523 147 285 354 285 682 L285 682 Z M988 514 C988 514 945 450 835 450 C720 450 631 544 631 681 C631 820 718 914 834 914 C943 914 984 851 985 850 L1130 966 C1059 1045 964 1097 826 1097 C567 1097 393 907 393 680 C393 454 569 267 825 267 C963 267 1057 316 1131 394 L988 514 Z M71 682 C71 287 391 -34 822 -34 C1250 -34 1572 287 1572 682 C1572 1078 1250 1397 822 1397 C391 1397 71 1078 71 682 L71 682 Z " />
<glyph glyph-name="ordfeminine" unicode="&#xaa;" horiz-adv-x="981" d="M365 1046 C365 1117 410 1145 472 1145 C533 1145 581 1112 581 1046 C581 976 534 945 474 945 C414 945 365 974 365 1046 L365 1046 Z M49 1045 C49 845 182 683 433 683 C504 683 564 713 611 750 L629 707 L882 707 L882 1383 L629 1383 L611 1341 C565 1378 505 1407 434 1407 C181 1407 49 1244 49 1045 L49 1045 Z " />
<glyph glyph-name="guillemotleft" unicode="&#xab;" horiz-adv-x="1503" d="M770 104 L482 490 L770 875 L395 875 L110 490 L395 103 L770 104 Z M1367 104 L1080 490 L1367 875 L993 875 L707 490 L993 103 L1367 104 Z " />
<glyph glyph-name="logicalnot" unicode="&#xac;" horiz-adv-x="1286" d="M128 497 L796 497 L796 223 L1151 223 L1151 792 L128 792 L128 497 Z " />
<glyph glyph-name="uni00AD" unicode="&#xad;" horiz-adv-x="827" d="M128 342 L698 342 L698 638 L128 638 L128 342 Z " />
<glyph glyph-name="registered" unicode="&#xae;" horiz-adv-x="1643" d="M285 682 C285 1010 523 1215 822 1215 C1123 1215 1358 1010 1358 682 C1358 511 1294 374 1191 281 L1048 575 C1123 623 1172 704 1172 804 C1172 968 1038 1084 875 1084 L522 1084 L522 273 L755 273 L755 527 L832 527 L949 273 L1182 273 C1087 192 962 147 822 147 C523 147 285 354 285 682 L285 682 Z M755 902 L855 902 C901 902 939 857 939 804 C939 750 899 708 854 708 L755 708 L755 902 Z M71 682 C71 287 391 -34 822 -34 C1250 -34 1572 287 1572 682 C1572 1078 1250 1397 822 1397 C391 1397 71 1078 71 682 L71 682 Z " />
<glyph glyph-name="macron" unicode="&#xaf;" horiz-adv-x="889" d="M130 1128 L764 1128 L764 1334 L130 1334 L130 1128 Z " />
<glyph glyph-name="degree" unicode="&#xb0;" horiz-adv-x="798" d="M30 1089 C30 888 196 723 400 723 C603 723 768 888 768 1089 C768 1291 603 1455 400 1455 C196 1455 30 1291 30 1089 L30 1089 Z M297 1089 C297 1148 343 1195 400 1195 C456 1195 503 1148 503 1089 C503 1031 456 984 400 984 C343 984 297 1031 297 1089 L297 1089 Z " />
<glyph glyph-name="plusminus" unicode="&#xb1;" horiz-adv-x="1116" d="M408 874 L98 873 L98 581 L408 581 L408 296 L100 296 L100 4 L1030 4 L1030 297 L711 297 L711 581 L1029 581 L1029 874 L711 874 L710 1205 L407 1205 L408 874 Z " />
<glyph glyph-name="twosuperior" unicode="&#xb2;" horiz-adv-x="890" d="M35 726 L804 726 L804 968 L609 968 C562 968 513 953 513 953 L617 1026 C735 1089 780 1207 780 1328 C780 1492 665 1641 408 1641 C88 1641 43 1412 43 1313 L343 1313 C343 1374 368 1398 416 1398 C463 1398 484 1370 484 1326 C484 1245 427 1184 290 1083 L35 888 L35 726 Z " />
<glyph glyph-name="threesuperior" unicode="&#xb3;" horiz-adv-x="827" d="M690 1617 L51 1617 L51 1374 L328 1386 L189 1232 L189 1083 L397 1081 C463 1081 493 1046 493 1006 C493 970 460 943 396 943 C336 943 315 977 315 1020 L21 1020 C22 782 190 701 413 701 C620 701 788 831 788 1013 C788 1201 666 1255 579 1284 C558 1294 534 1297 534 1297 L690 1488 L690 1617 Z " />
<glyph glyph-name="acute" unicode="&#xb4;" horiz-adv-x="468" d="M190 1486 L-7 1153 L249 1153 L455 1393 L190 1486 Z " />
<glyph glyph-name="mu" unicode="&#xb5;" horiz-adv-x="1379" d="M1238 1043 L869 1043 L869 492 C869 311 797 271 691 271 C573 271 501 371 501 502 L501 1043 L134 1043 L134 -344 L498 -344 L496 47 C571 2 665 -35 765 -35 C1102 -35 1238 167 1238 485 L1238 1043 Z " />
<glyph glyph-name="paragraph" unicode="&#xb6;" horiz-adv-x="1535" d="M887 -215 L887 1397 L513 1397 C262 1397 55 1218 55 968 C55 712 260 538 508 540 L597 540 L597 -215 L887 -215 Z M1034 -215 L1330 -215 L1330 1105 L1473 1105 L1473 1396 L1330 1396 L1330 1397 L1034 1397 L1034 -215 Z " />
<glyph glyph-name="periodcentered" unicode="&#xb7;" horiz-adv-x="572" d="M92 488 C92 389 168 307 285 307 C404 307 480 388 480 488 C480 585 404 667 286 667 C167 667 92 585 92 488 L92 488 Z " />
<glyph glyph-name="cedilla" unicode="&#xb8;" horiz-adv-x="411" d="M165 -238 L166 -237 L166 -238 C213 -238 287 -258 287 -318 C287 -365 250 -390 220 -390 C182 -390 152 -377 121 -358 L51 -538 C97 -582 170 -596 252 -596 C400 -596 538 -480 538 -312 C538 -215 485 -140 388 -102 L444 38 L272 42 L165 -238 Z " />
<glyph glyph-name="onesuperior" unicode="&#xb9;" horiz-adv-x="592" d="M200 726 L489 726 L489 1617 L255 1617 L60 1553 L62 1350 L206 1392 L200 726 Z " />
<glyph glyph-name="ordmasculine" unicode="&#xba;" horiz-adv-x="957" d="M62 1045 C62 845 224 682 475 682 C732 682 895 842 895 1045 C895 1245 732 1409 477 1409 C223 1409 62 1244 62 1045 L62 1045 Z M377 1046 C377 1117 421 1145 478 1145 C535 1145 579 1115 579 1046 C579 974 537 945 479 945 C422 945 377 974 377 1046 L377 1046 Z " />
<glyph glyph-name="guillemotright" unicode="&#xbb;" horiz-adv-x="1480" d="M1102 103 L1386 490 L1102 875 L726 875 L1014 490 L727 104 L1102 103 Z M504 103 L789 490 L504 875 L129 875 L417 490 L129 104 L504 103 Z " />
<glyph glyph-name="onequarter" unicode="&#xbc;" horiz-adv-x="1009" d="M347 -10 L456 146 L453 -8 L347 -10 Z M856 -251 L856 -8 L744 -8 L743 460 L408 490 L24 -67 L46 -251 L451 -250 L451 -401 L744 -401 L744 -250 L856 -251 Z M925 799 L70 799 L70 553 L925 553 L925 799 Z M641 1762 L407 1762 L212 1698 L214 1495 L358 1537 L352 871 L641 871 L641 1762 Z " />
<glyph glyph-name="onehalf" unicode="&#xbd;" horiz-adv-x="1009" d="M70 553 L925 553 L925 799 L70 799 L70 553 Z M352 871 L641 871 L641 1762 L407 1762 L212 1698 L214 1495 L358 1537 L352 871 Z M113 -424 L882 -424 L882 -182 L687 -182 C640 -182 591 -197 591 -197 L695 -124 C813 -61 858 57 858 178 C858 342 743 491 486 491 C166 491 121 262 121 163 L421 163 C421 224 446 248 494 248 C541 248 562 220 562 176 C562 95 505 34 368 -67 L113 -262 L113 -424 Z " />
<glyph glyph-name="questiondown" unicode="&#xbf;" horiz-adv-x="1003" d="M383 572 L383 537 C383 465 348 433 258 369 C144 287 18 221 18 29 C18 -221 232 -381 492 -381 C835 -381 988 -217 988 55 L621 55 C621 -33 587 -77 504 -77 C419 -77 385 -35 385 32 C385 97 488 117 585 210 C669 290 709 374 709 537 L709 572 L383 572 Z M733 867 C733 965 656 1047 540 1047 C422 1047 345 967 345 867 C345 769 422 687 539 687 C657 687 733 769 733 867 L733 867 Z " />
<glyph glyph-name="Agrave" unicode="&#xc0;" horiz-adv-x="1500" d="M746 873 L750 873 L760 823 L886 495 L609 495 L735 823 L746 873 Z M1474 0 L924 1361 L572 1361 L22 0 L420 0 L490 184 L1005 184 L1076 0 L1474 0 Z M633 1550 L890 1550 L694 1883 L428 1790 L633 1550 Z " />
<glyph glyph-name="Aacute" unicode="&#xc1;" horiz-adv-x="1500" d="M746 873 L750 873 L760 823 L886 495 L609 495 L735 823 L746 873 Z M1474 0 L924 1361 L572 1361 L22 0 L420 0 L490 184 L1005 184 L1076 0 L1474 0 Z M663 1537 L919 1537 L1125 1777 L860 1870 L663 1537 Z " />
<glyph glyph-name="Acircumflex" unicode="&#xc2;" horiz-adv-x="1500" d="M746 873 L750 873 L760 823 L886 495 L609 495 L735 823 L746 873 Z M1474 0 L924 1361 L572 1361 L22 0 L420 0 L490 184 L1005 184 L1076 0 L1474 0 Z M377 1728 L482 1535 L747 1673 L1011 1535 L1116 1728 L745 1935 L377 1728 Z " />
<glyph glyph-name="Atilde" unicode="&#xc3;" horiz-adv-x="1500" d="M746 873 L750 873 L760 823 L886 495 L609 495 L735 823 L746 873 Z M1474 0 L924 1361 L572 1361 L22 0 L420 0 L490 184 L1005 184 L1076 0 L1474 0 Z M958 1821 C938 1767 906 1744 869 1744 C810 1744 754 1803 631 1807 C511 1807 420 1711 387 1601 L531 1500 C558 1558 585 1565 615 1565 C660 1565 741 1506 864 1506 C982 1506 1065 1595 1105 1718 L958 1821 Z " />
<glyph glyph-name="Adieresis" unicode="&#xc4;" horiz-adv-x="1500" d="M746 873 L750 873 L760 823 L886 495 L609 495 L735 823 L746 873 Z M1474 0 L924 1361 L572 1361 L22 0 L420 0 L490 184 L1005 184 L1076 0 L1474 0 Z M386 1691 C386 1618 447 1559 543 1559 C638 1559 700 1618 700 1691 C700 1763 639 1822 543 1822 C448 1822 386 1763 386 1691 L386 1691 Z M794 1691 C794 1618 854 1559 950 1559 C1045 1559 1108 1618 1108 1691 C1108 1763 1046 1822 950 1822 C856 1822 794 1763 794 1691 L794 1691 Z " />
<glyph glyph-name="Aring" unicode="&#xc5;" horiz-adv-x="1500" d="M746 873 L750 873 L760 823 L886 495 L609 495 L735 823 L746 873 Z M666 1644 C666 1685 699 1717 747 1717 C796 1717 828 1685 828 1644 C828 1605 795 1572 747 1572 C698 1572 666 1605 666 1644 L666 1644 Z M1474 0 L924 1361 L572 1361 L22 0 L420 0 L490 184 L1005 184 L1076 0 L1474 0 Z M467 1645 C467 1514 575 1406 747 1406 C916 1406 1027 1514 1027 1645 C1027 1777 917 1884 747 1884 C577 1884 467 1777 467 1645 L467 1645 Z " />
<glyph glyph-name="AE" unicode="&#xc6;" horiz-adv-x="2083" d="M1002 495 L767 495 L959 789 L1002 879 L1002 495 Z M1993 314 L1379 314 L1379 530 L1895 530 L1895 843 L1379 843 L1379 1046 L1983 1046 L1983 1360 L897 1360 L8 -1 L444 -1 L564 184 L1002 184 L1002 0 L1993 0 L1993 314 Z " />
<glyph glyph-name="Ccedilla" unicode="&#xc7;" horiz-adv-x="1655" d="M667 -236 L667 -237 C714 -237 788 -257 788 -317 C788 -364 751 -389 721 -389 C683 -389 653 -376 622 -357 L552 -537 C598 -581 671 -595 753 -595 C901 -595 1039 -479 1039 -311 C1039 -214 986 -139 889 -101 L918 -28 C1193 3 1495 187 1558 525 L1173 525 C1128 363 980 281 836 281 C629 281 462 453 462 681 C462 910 629 1081 836 1081 C981 1081 1130 996 1175 835 L1559 834 C1491 1221 1127 1395 836 1395 C421 1395 86 1078 86 682 C86 316 374 14 746 -28 L666 -237 L667 -236 Z " />
<glyph glyph-name="Egrave" unicode="&#xc8;" horiz-adv-x="1204" d="M127 0 L1118 0 L1118 314 L504 314 L504 516 L1020 516 L1020 829 L504 829 L504 1046 L1109 1046 L1109 1360 L127 1360 L127 0 Z M342 1790 L547 1550 L804 1550 L608 1883 L342 1790 Z " />
<glyph glyph-name="Eacute" unicode="&#xc9;" horiz-adv-x="1204" d="M127 0 L1118 0 L1118 314 L504 314 L504 516 L1020 516 L1020 829 L504 829 L504 1046 L1109 1046 L1109 1360 L127 1360 L127 0 Z M688 1883 L491 1550 L747 1550 L953 1790 L688 1883 Z " />
<glyph glyph-name="Ecircumflex" unicode="&#xca;" horiz-adv-x="1204" d="M127 0 L1118 0 L1118 314 L504 314 L504 516 L1020 516 L1020 829 L504 829 L504 1046 L1109 1046 L1109 1360 L127 1360 L127 0 Z M623 1935 L255 1728 L360 1535 L625 1673 L889 1535 L994 1728 L623 1935 Z " />
<glyph glyph-name="Edieresis" unicode="&#xcb;" horiz-adv-x="1204" d="M127 0 L1118 0 L1118 314 L504 314 L504 516 L1020 516 L1020 829 L504 829 L504 1046 L1109 1046 L1109 1360 L127 1360 L127 0 Z M265 1691 C265 1618 326 1559 422 1559 C517 1559 579 1618 579 1691 C579 1763 518 1822 422 1822 C327 1822 265 1763 265 1691 L265 1691 Z M673 1691 C673 1618 733 1559 829 1559 C924 1559 987 1618 987 1691 C987 1763 925 1822 829 1822 C735 1822 673 1763 673 1691 L673 1691 Z " />
<glyph glyph-name="Igrave" unicode="&#xcc;" horiz-adv-x="632" d="M127 0 L504 0 L504 1360 L127 1360 L127 0 Z M14 1790 L219 1550 L476 1550 L280 1883 L14 1790 Z " />
<glyph glyph-name="Iacute" unicode="&#xcd;" horiz-adv-x="632" d="M127 0 L504 0 L504 1360 L127 1360 L127 0 Z M407 1884 L210 1551 L466 1551 L672 1791 L407 1884 Z " />
<glyph glyph-name="Icircumflex" unicode="&#xce;" horiz-adv-x="632" d="M127 0 L504 0 L504 1360 L127 1360 L127 0 Z M320 1935 L-48 1728 L57 1535 L322 1673 L586 1535 L691 1728 L320 1935 Z " />
<glyph glyph-name="Idieresis" unicode="&#xcf;" horiz-adv-x="632" d="M127 0 L504 0 L504 1360 L127 1360 L127 0 Z M-39 1691 C-39 1618 22 1559 118 1559 C213 1559 275 1618 275 1691 C275 1763 214 1822 118 1822 C23 1822 -39 1763 -39 1691 L-39 1691 Z M369 1691 C369 1618 429 1559 525 1559 C620 1559 683 1618 683 1691 C683 1763 621 1822 525 1822 C431 1822 369 1763 369 1691 L369 1691 Z " />
<glyph glyph-name="Eth" unicode="&#xd0;" horiz-adv-x="1671" d="M-16 552 L124 552 L124 0 L701 0 C1169 0 1431 276 1431 681 C1431 1125 1112 1360 698 1360 L124 1360 L124 793 L-16 793 L-16 552 Z M501 314 L501 552 L615 552 L615 793 L501 793 L501 1045 L693 1045 C938 1045 1055 907 1055 677 C1055 439 927 314 693 314 L501 314 Z " />
<glyph glyph-name="Ntilde" unicode="&#xd1;" horiz-adv-x="1528" d="M1401 1360 L1025 1360 L1025 631 L458 1360 L127 1360 L127 0 L504 0 L504 732 L1074 0 L1401 0 L1401 1360 Z M973 1789 C953 1735 921 1712 884 1712 C825 1712 769 1771 646 1775 C526 1775 435 1679 402 1569 L546 1468 C573 1526 600 1533 630 1533 C675 1533 756 1474 879 1474 C997 1474 1080 1563 1120 1686 L973 1789 Z " />
<glyph glyph-name="Ograve" unicode="&#xd2;" horiz-adv-x="1673" d="M86 682 C86 287 421 -33 836 -33 C1249 -33 1586 287 1586 682 C1586 1078 1249 1395 836 1395 C421 1395 86 1078 86 682 L86 682 Z M462 681 C462 910 629 1081 836 1081 C1045 1081 1210 910 1210 681 C1210 453 1045 281 836 281 C629 281 462 453 462 681 L462 681 Z M505 1790 L710 1550 L967 1550 L771 1883 L505 1790 Z " />
<glyph glyph-name="Oacute" unicode="&#xd3;" horiz-adv-x="1673" d="M86 682 C86 287 421 -33 836 -33 C1249 -33 1586 287 1586 682 C1586 1078 1249 1395 836 1395 C421 1395 86 1078 86 682 L86 682 Z M462 681 C462 910 629 1081 836 1081 C1045 1081 1210 910 1210 681 C1210 453 1045 281 836 281 C629 281 462 453 462 681 L462 681 Z M876 1883 L679 1550 L935 1550 L1141 1790 L876 1883 Z " />
<glyph glyph-name="Ocircumflex" unicode="&#xd4;" horiz-adv-x="1673" d="M462 681 C462 910 629 1081 836 1081 C1045 1081 1210 910 1210 681 C1210 453 1045 281 836 281 C629 281 462 453 462 681 L462 681 Z M86 682 C86 287 421 -33 836 -33 C1249 -33 1586 287 1586 682 C1586 1078 1249 1395 836 1395 C421 1395 86 1078 86 682 L86 682 Z M432 1732 L537 1539 L802 1677 L1066 1539 L1171 1732 L800 1939 L432 1732 Z " />
<glyph glyph-name="Otilde" unicode="&#xd5;" horiz-adv-x="1673" d="M462 681 C462 910 629 1081 836 1081 C1045 1081 1210 910 1210 681 C1210 453 1045 281 836 281 C629 281 462 453 462 681 L462 681 Z M86 682 C86 287 421 -33 836 -33 C1249 -33 1586 287 1586 682 C1586 1078 1249 1395 836 1395 C421 1395 86 1078 86 682 L86 682 Z M1018 1821 C998 1767 966 1744 929 1744 C870 1744 814 1803 691 1807 C571 1807 480 1711 447 1601 L591 1500 C618 1558 645 1565 675 1565 C720 1565 801 1506 924 1506 C1042 1506 1125 1595 1165 1718 L1018 1821 Z " />
<glyph glyph-name="Odieresis" unicode="&#xd6;" horiz-adv-x="1673" d="M86 682 C86 287 421 -33 836 -33 C1249 -33 1586 287 1586 682 C1586 1078 1249 1395 836 1395 C421 1395 86 1078 86 682 L86 682 Z M462 681 C462 910 629 1081 836 1081 C1045 1081 1210 910 1210 681 C1210 453 1045 281 836 281 C629 281 462 453 462 681 L462 681 Z M437 1691 C437 1618 498 1559 594 1559 C689 1559 751 1618 751 1691 C751 1763 690 1822 594 1822 C499 1822 437 1763 437 1691 L437 1691 Z M845 1691 C845 1618 905 1559 1001 1559 C1096 1559 1159 1618 1159 1691 C1159 1763 1097 1822 1001 1822 C907 1822 845 1763 845 1691 L845 1691 Z " />
<glyph glyph-name="multiply" unicode="&#xd7;" horiz-adv-x="1393" d="M926 973 L694 739 L473 960 L263 753 L482 532 L252 300 L467 90 L697 321 L921 95 L1132 302 L909 528 L1140 763 L926 973 Z " />
<glyph glyph-name="Oslash" unicode="&#xd8;" horiz-adv-x="1673" d="M1210 681 C1210 453 1045 281 836 281 C811 281 788 283 765 288 L1177 848 C1198 798 1210 741 1210 681 L1210 681 Z M462 681 C462 910 629 1081 836 1081 C857 1081 878 1079 898 1076 L491 522 C472 570 462 624 462 681 L462 681 Z M86 682 C86 504 154 341 266 216 L142 47 L432 -165 L564 15 C648 -15 740 -33 836 -33 C1249 -33 1586 287 1586 682 C1586 862 1516 1027 1400 1152 L1522 1317 L1231 1529 L1099 1350 C1017 1379 928 1395 836 1395 C421 1395 86 1078 86 682 L86 682 Z " />
<glyph glyph-name="Ugrave" unicode="&#xd9;" horiz-adv-x="1454" d="M961 523 C961 380 878 278 726 278 C571 278 489 380 489 522 L489 1360 L113 1360 L113 524 C113 179 380 -33 726 -33 C1102 -33 1338 203 1338 524 L1338 1360 L961 1360 L961 523 Z M445 1790 L650 1550 L907 1550 L711 1883 L445 1790 Z " />
<glyph glyph-name="Uacute" unicode="&#xda;" horiz-adv-x="1454" d="M961 523 C961 380 878 278 726 278 C571 278 489 380 489 522 L489 1360 L113 1360 L113 524 C113 179 380 -33 726 -33 C1102 -33 1338 203 1338 524 L1338 1360 L961 1360 L961 523 Z M794 1883 L597 1550 L853 1550 L1059 1790 L794 1883 Z " />
<glyph glyph-name="Ucircumflex" unicode="&#xdb;" horiz-adv-x="1454" d="M961 523 C961 380 878 278 726 278 C571 278 489 380 489 522 L489 1360 L113 1360 L113 524 C113 179 380 -33 726 -33 C1102 -33 1338 203 1338 524 L1338 1360 L961 1360 L961 523 Z M720 1935 L352 1728 L457 1535 L722 1673 L986 1535 L1091 1728 L720 1935 Z " />
<glyph glyph-name="Udieresis" unicode="&#xdc;" horiz-adv-x="1454" d="M961 523 C961 380 878 278 726 278 C571 278 489 380 489 522 L489 1360 L113 1360 L113 524 C113 179 380 -33 726 -33 C1102 -33 1338 203 1338 524 L1338 1360 L961 1360 L961 523 Z M358 1691 C358 1618 419 1559 515 1559 C610 1559 672 1618 672 1691 C672 1763 611 1822 515 1822 C420 1822 358 1763 358 1691 L358 1691 Z M766 1691 C766 1618 826 1559 922 1559 C1017 1559 1080 1618 1080 1691 C1080 1763 1018 1822 922 1822 C828 1822 766 1763 766 1691 L766 1691 Z " />
<glyph glyph-name="Yacute" unicode="&#xdd;" horiz-adv-x="1434" d="M980 1360 L719 845 L716 845 L454 1360 L18 1360 L529 511 L529 0 L906 0 L905 513 L1419 1360 L980 1360 Z M797 1871 L600 1538 L856 1538 L1062 1778 L797 1871 Z " />
<glyph glyph-name="Thorn" unicode="&#xde;" horiz-adv-x="1350" d="M509 838 L713 838 C793 838 859 758 859 669 C859 576 792 503 712 503 L509 503 L509 838 Z M734 190 C1026 190 1236 385 1236 669 C1236 948 1024 1152 729 1152 L509 1152 L509 1360 L132 1360 L132 0 L509 0 L509 190 L734 190 Z " />
<glyph glyph-name="germandbls" unicode="&#xdf;" horiz-adv-x="1479" d="M132 0 L501 0 L501 741 L876 741 L646 482 L646 273 L886 271 C1017 271 1065 205 1065 111 C1065 19 992 -50 853 -50 C761 -50 689 -30 625 -1 L625 -284 C711 -334 784 -351 905 -351 C1198 -351 1430 -152 1430 119 C1430 398 1292 496 1147 535 C1121 544 1085 549 1085 549 L1341 816 L1341 1044 L501 1044 L501 1071 C501 1142 535 1200 627 1200 L769 1199 L769 1489 L535 1489 C225 1489 132 1269 132 1078 L132 0 Z " />
<glyph glyph-name="agrave" unicode="&#xe0;" horiz-adv-x="1395" d="M455 522 C455 675 553 771 683 771 C810 771 912 674 912 522 C912 366 812 270 685 270 C558 270 455 367 455 522 L455 522 Z M88 521 C88 216 299 -35 647 -35 C767 -35 867 6 939 56 L951 0 L1262 0 L1262 1043 L951 1043 L939 988 C868 1037 770 1078 648 1078 C297 1078 88 825 88 521 L88 521 Z M546 1153 L803 1153 L607 1486 L341 1393 L546 1153 Z " />
<glyph glyph-name="aacute" unicode="&#xe1;" horiz-adv-x="1395" d="M455 522 C455 675 553 771 683 771 C810 771 912 674 912 522 C912 366 812 270 685 270 C558 270 455 367 455 522 L455 522 Z M88 521 C88 216 299 -35 647 -35 C767 -35 867 6 939 56 L951 0 L1262 0 L1262 1043 L951 1043 L939 988 C868 1037 770 1078 648 1078 C297 1078 88 825 88 521 L88 521 Z M498 1153 L754 1153 L960 1393 L695 1486 L498 1153 Z " />
<glyph glyph-name="acircumflex" unicode="&#xe2;" horiz-adv-x="1395" d="M455 522 C455 675 553 771 683 771 C810 771 912 674 912 522 C912 366 812 270 685 270 C558 270 455 367 455 522 L455 522 Z M88 521 C88 216 299 -35 647 -35 C767 -35 867 6 939 56 L951 0 L1262 0 L1262 1043 L951 1043 L939 988 C868 1037 770 1078 648 1078 C297 1078 88 825 88 521 L88 521 Z M278 1331 L383 1138 L648 1276 L912 1138 L1017 1331 L646 1538 L278 1331 Z " />
<glyph glyph-name="atilde" unicode="&#xe3;" horiz-adv-x="1395" d="M455 522 C455 675 553 771 683 771 C810 771 912 674 912 522 C912 366 812 270 685 270 C558 270 455 367 455 522 L455 522 Z M88 521 C88 216 299 -35 647 -35 C767 -35 867 6 939 56 L951 0 L1262 0 L1262 1043 L951 1043 L939 988 C868 1037 770 1078 648 1078 C297 1078 88 825 88 521 L88 521 Z M863 1481 C843 1427 811 1404 774 1404 C715 1404 659 1463 536 1467 C416 1467 325 1371 292 1261 L436 1160 C463 1218 490 1225 520 1225 C565 1225 646 1166 769 1166 C887 1166 970 1255 1010 1378 L863 1481 Z " />
<glyph glyph-name="adieresis" unicode="&#xe4;" horiz-adv-x="1395" d="M455 522 C455 675 553 771 683 771 C810 771 912 674 912 522 C912 366 812 270 685 270 C558 270 455 367 455 522 L455 522 Z M88 521 C88 216 299 -35 647 -35 C767 -35 867 6 939 56 L951 0 L1262 0 L1262 1043 L951 1043 L939 988 C868 1037 770 1078 648 1078 C297 1078 88 825 88 521 L88 521 Z M285 1294 C285 1221 346 1162 442 1162 C537 1162 599 1221 599 1294 C599 1366 538 1425 442 1425 C347 1425 285 1366 285 1294 L285 1294 Z M693 1294 C693 1221 753 1162 849 1162 C944 1162 1007 1221 1007 1294 C1007 1366 945 1425 849 1425 C755 1425 693 1366 693 1294 L693 1294 Z " />
<glyph glyph-name="aring" unicode="&#xe5;" horiz-adv-x="1395" d="M455 522 C455 675 553 771 683 771 C810 771 912 674 912 522 C912 366 812 270 685 270 C558 270 455 367 455 522 L455 522 Z M594 1417 C594 1458 627 1490 675 1490 C724 1490 756 1458 756 1417 C756 1378 723 1345 675 1345 C626 1345 594 1378 594 1417 L594 1417 Z M88 521 C88 216 299 -35 647 -35 C767 -35 867 6 939 56 L951 0 L1262 0 L1262 1043 L951 1043 L939 988 C868 1037 770 1078 648 1078 C297 1078 88 825 88 521 L88 521 Z M395 1418 C395 1287 503 1179 675 1179 C844 1179 955 1287 955 1418 C955 1550 845 1657 675 1657 C505 1657 395 1550 395 1418 L395 1418 Z " />
<glyph glyph-name="ae" unicode="&#xe6;" horiz-adv-x="2212" d="M901 521 C901 498 902 476 905 454 C880 339 792 270 685 270 C558 270 455 367 455 522 C455 675 553 771 683 771 C790 771 880 702 905 589 C902 566 901 544 901 521 L901 521 Z M1488 795 C1582 795 1646 745 1680 670 L1282 670 C1319 746 1389 795 1488 795 L1488 795 Z M1262 4 C1329 -21 1405 -35 1486 -35 C1795 -35 1990 158 2045 342 L1648 342 C1622 295 1566 257 1488 257 C1394 257 1304 321 1268 423 L2065 423 C2070 450 2076 473 2076 521 C2076 826 1839 1078 1486 1078 C1405 1078 1329 1064 1262 1039 L1262 1043 L951 1043 L939 988 C868 1037 770 1078 648 1078 C297 1078 88 825 88 521 C88 216 299 -35 647 -35 C767 -35 867 6 939 56 L951 0 L1262 0 L1262 4 Z " />
<glyph glyph-name="ccedilla" unicode="&#xe7;" horiz-adv-x="1317" d="M522 -249 L522 -250 C569 -250 643 -270 643 -330 C643 -377 606 -402 576 -402 C538 -402 508 -389 477 -370 L407 -550 C453 -594 526 -608 608 -608 C756 -608 894 -492 894 -324 C894 -227 841 -152 744 -114 L779 -27 C1030 11 1204 186 1247 406 L873 406 C837 321 762 273 675 273 C554 273 455 365 455 522 C455 679 554 771 675 771 C762 771 837 722 873 638 L1247 639 C1193 891 981 1079 673 1079 C322 1079 87 824 88 521 C88 238 293 -1 604 -32 L521 -250 L522 -249 Z " />
<glyph glyph-name="egrave" unicode="&#xe8;" horiz-adv-x="1352" d="M676 795 C770 795 834 745 868 670 L470 670 C507 746 577 795 676 795 L676 795 Z M89 521 C90 218 325 -35 674 -35 C983 -35 1178 158 1233 342 L836 342 C810 295 754 257 676 257 C582 257 492 321 456 423 L1253 423 C1258 450 1264 473 1264 521 C1264 826 1027 1078 674 1078 C324 1078 89 825 89 521 L89 521 Z M547 1153 L804 1153 L608 1486 L342 1393 L547 1153 Z " />
<glyph glyph-name="eacute" unicode="&#xe9;" horiz-adv-x="1352" d="M676 795 C770 795 834 745 868 670 L470 670 C507 746 577 795 676 795 L676 795 Z M89 521 C90 218 325 -35 674 -35 C983 -35 1178 158 1233 342 L836 342 C810 295 754 257 676 257 C582 257 492 321 456 423 L1253 423 C1258 450 1264 473 1264 521 C1264 826 1027 1078 674 1078 C324 1078 89 825 89 521 L89 521 Z M557 1153 L813 1153 L1019 1393 L754 1486 L557 1153 Z " />
<glyph glyph-name="ecircumflex" unicode="&#xea;" horiz-adv-x="1352" d="M676 795 C770 795 834 745 868 670 L470 670 C507 746 577 795 676 795 L676 795 Z M89 521 C90 218 325 -35 674 -35 C983 -35 1178 158 1233 342 L836 342 C810 295 754 257 676 257 C582 257 492 321 456 423 L1253 423 C1258 450 1264 473 1264 521 C1264 826 1027 1078 674 1078 C324 1078 89 825 89 521 L89 521 Z M320 1331 L425 1138 L690 1276 L954 1138 L1059 1331 L688 1538 L320 1331 Z " />
<glyph glyph-name="edieresis" unicode="&#xeb;" horiz-adv-x="1352" d="M676 795 C770 795 834 745 868 670 L470 670 C507 746 577 795 676 795 L676 795 Z M89 521 C90 218 325 -35 674 -35 C983 -35 1178 158 1233 342 L836 342 C810 295 754 257 676 257 C582 257 492 321 456 423 L1253 423 C1258 450 1264 473 1264 521 C1264 826 1027 1078 674 1078 C324 1078 89 825 89 521 L89 521 Z M303 1294 C303 1221 364 1162 460 1162 C555 1162 617 1221 617 1294 C617 1366 556 1425 460 1425 C365 1425 303 1366 303 1294 L303 1294 Z M711 1294 C711 1221 771 1162 867 1162 C962 1162 1025 1221 1025 1294 C1025 1366 963 1425 867 1425 C773 1425 711 1366 711 1294 L711 1294 Z " />
<glyph glyph-name="igrave" unicode="&#xec;" horiz-adv-x="632" d="M132 0 L501 0 L501 1043 L132 1043 L132 0 Z M24 1393 L229 1153 L486 1153 L290 1486 L24 1393 Z " />
<glyph glyph-name="iacute" unicode="&#xed;" horiz-adv-x="632" d="M132 0 L501 0 L501 1043 L132 1043 L132 0 Z M378 1486 L181 1153 L437 1153 L643 1393 L378 1486 Z " />
<glyph glyph-name="icircumflex" unicode="&#xee;" horiz-adv-x="632" d="M132 0 L501 0 L501 1043 L132 1043 L132 0 Z M294 1538 L-74 1331 L31 1138 L296 1276 L560 1138 L665 1331 L294 1538 Z " />
<glyph glyph-name="idieresis" unicode="&#xef;" horiz-adv-x="632" d="M132 0 L501 0 L501 1043 L132 1043 L132 0 Z M-68 1294 C-68 1221 -7 1162 89 1162 C184 1162 246 1221 246 1294 C246 1366 185 1425 89 1425 C-6 1425 -68 1366 -68 1294 L-68 1294 Z M340 1294 C340 1221 400 1162 496 1162 C591 1162 654 1221 654 1294 C654 1366 592 1425 496 1425 C402 1425 340 1366 340 1294 L340 1294 Z " />
<glyph glyph-name="eth" unicode="&#xf0;" horiz-adv-x="1320" d="M441 505 C441 659 538 740 660 740 C784 740 882 658 882 505 C882 350 786 271 661 271 C539 271 441 352 441 505 L441 505 Z M937 1399 C898 1434 863 1460 838 1480 L415 1365 C475 1343 530 1314 580 1277 L443 1231 L544 1075 L724 1137 C768 1081 806 1019 837 954 C767 1014 685 1046 600 1046 C245 1046 74 809 74 504 C74 200 310 -36 658 -36 C1013 -36 1248 213 1248 583 C1248 586 1247 589 1247 591 L1248 592 C1248 911 1163 1118 1066 1254 L1200 1300 L1099 1455 L937 1399 Z " />
<glyph glyph-name="ntilde" unicode="&#xf1;" horiz-adv-x="1342" d="M1235 557 C1235 874 1100 1078 763 1078 C649 1078 530 1033 444 981 L425 1043 L132 1043 L132 0 L498 0 L498 514 C498 660 571 771 709 771 C795 771 867 722 867 549 L867 0 L1235 0 L1235 557 Z M974 1442 C954 1388 922 1365 885 1365 C826 1365 770 1424 647 1428 C527 1428 436 1332 403 1222 L547 1121 C574 1179 601 1186 631 1186 C676 1186 757 1127 880 1127 C998 1127 1081 1216 1121 1339 L974 1442 Z " />
<glyph glyph-name="ograve" unicode="&#xf2;" horiz-adv-x="1352" d="M89 521 C89 216 325 -35 672 -35 C1027 -35 1263 214 1263 521 C1263 826 1027 1078 674 1078 C324 1078 89 825 89 521 L89 521 Z M456 522 C456 675 552 771 676 771 C799 771 896 674 896 522 C896 367 801 271 677 271 C555 271 456 368 456 522 L456 522 Z M318 1393 L523 1153 L780 1153 L584 1486 L318 1393 Z " />
<glyph glyph-name="oacute" unicode="&#xf3;" horiz-adv-x="1352" d="M89 521 C89 216 325 -35 672 -35 C1027 -35 1263 214 1263 521 C1263 826 1027 1078 674 1078 C324 1078 89 825 89 521 L89 521 Z M456 522 C456 675 552 771 676 771 C799 771 896 674 896 522 C896 367 801 271 677 271 C555 271 456 368 456 522 L456 522 Z M744 1486 L547 1153 L803 1153 L1009 1393 L744 1486 Z " />
<glyph glyph-name="ocircumflex" unicode="&#xf4;" horiz-adv-x="1352" d="M456 522 C456 675 552 771 676 771 C799 771 896 674 896 522 C896 367 801 271 677 271 C555 271 456 368 456 522 L456 522 Z M89 521 C89 216 325 -35 672 -35 C1027 -35 1263 214 1263 521 C1263 826 1027 1078 674 1078 C324 1078 89 825 89 521 L89 521 Z M249 1331 L354 1138 L619 1276 L883 1138 L988 1331 L617 1538 L249 1331 Z " />
<glyph glyph-name="otilde" unicode="&#xf5;" horiz-adv-x="1352" d="M456 522 C456 675 552 771 676 771 C799 771 896 674 896 522 C896 367 801 271 677 271 C555 271 456 368 456 522 L456 522 Z M89 521 C89 216 325 -35 672 -35 C1027 -35 1263 214 1263 521 C1263 826 1027 1078 674 1078 C324 1078 89 825 89 521 L89 521 Z M869 1444 C849 1390 817 1367 780 1367 C721 1367 665 1426 542 1430 C422 1430 331 1334 298 1224 L442 1123 C469 1181 496 1188 526 1188 C571 1188 652 1129 775 1129 C893 1129 976 1218 1016 1341 L869 1444 Z " />
<glyph glyph-name="odieresis" unicode="&#xf6;" horiz-adv-x="1352" d="M89 521 C89 216 325 -35 672 -35 C1027 -35 1263 214 1263 521 C1263 826 1027 1078 674 1078 C324 1078 89 825 89 521 L89 521 Z M456 522 C456 675 552 771 676 771 C799 771 896 674 896 522 C896 367 801 271 677 271 C555 271 456 368 456 522 L456 522 Z M256 1294 C256 1221 317 1162 413 1162 C508 1162 570 1221 570 1294 C570 1366 509 1425 413 1425 C318 1425 256 1366 256 1294 L256 1294 Z M664 1294 C664 1221 724 1162 820 1162 C915 1162 978 1221 978 1294 C978 1366 916 1425 820 1425 C726 1425 664 1366 664 1294 L664 1294 Z " />
<glyph glyph-name="divide" unicode="&#xf7;" horiz-adv-x="1393" d="M525 918 C525 831 601 761 692 761 C797 761 862 831 862 918 C862 1003 797 1075 693 1075 C591 1075 525 1003 525 918 L525 918 Z M525 142 C525 58 591 -14 692 -14 C797 -14 862 56 862 142 C862 228 797 300 693 300 C591 300 525 228 525 142 L525 142 Z M231 678 L231 386 L1161 386 L1161 679 L231 678 Z " />
<glyph glyph-name="oslash" unicode="&#xf8;" horiz-adv-x="1352" d="M456 522 C456 675 552 771 676 771 C799 771 896 674 896 522 C896 367 801 271 677 271 C555 271 456 368 456 522 L456 522 Z M89 521 C89 383 137 257 221 159 L136 43 L386 -139 L483 -8 C541 -25 604 -35 672 -35 C1027 -35 1263 214 1263 521 C1263 661 1212 791 1124 889 L1196 987 L945 1170 L859 1053 C802 1069 740 1078 674 1078 C324 1078 89 825 89 521 L89 521 Z " />
<glyph glyph-name="ugrave" unicode="&#xf9;" horiz-adv-x="1298" d="M648 272 C542 272 471 317 471 498 L471 1043 L102 1043 L102 486 C102 99 343 -35 648 -35 C954 -35 1195 99 1195 486 L1195 1043 L826 1043 L826 498 C826 317 754 272 648 272 L648 272 Z M356 1393 L561 1153 L818 1153 L622 1486 L356 1393 Z " />
<glyph glyph-name="uacute" unicode="&#xfa;" horiz-adv-x="1298" d="M648 272 C542 272 471 317 471 498 L471 1043 L102 1043 L102 486 C102 99 343 -35 648 -35 C954 -35 1195 99 1195 486 L1195 1043 L826 1043 L826 498 C826 317 754 272 648 272 L648 272 Z M726 1486 L529 1153 L785 1153 L991 1393 L726 1486 Z " />
<glyph glyph-name="ucircumflex" unicode="&#xfb;" horiz-adv-x="1298" d="M648 272 C542 272 471 317 471 498 L471 1043 L102 1043 L102 486 C102 99 343 -35 648 -35 C954 -35 1195 99 1195 486 L1195 1043 L826 1043 L826 498 C826 317 754 272 648 272 L648 272 Z M673 1538 L305 1331 L410 1138 L675 1276 L939 1138 L1044 1331 L673 1538 Z " />
<glyph glyph-name="udieresis" unicode="&#xfc;" horiz-adv-x="1298" d="M648 272 C542 272 471 317 471 498 L471 1043 L102 1043 L102 486 C102 99 343 -35 648 -35 C954 -35 1195 99 1195 486 L1195 1043 L826 1043 L826 498 C826 317 754 272 648 272 L648 272 Z M313 1294 C313 1221 374 1162 470 1162 C565 1162 627 1221 627 1294 C627 1366 566 1425 470 1425 C375 1425 313 1366 313 1294 L313 1294 Z M721 1294 C721 1221 781 1162 877 1162 C972 1162 1035 1221 1035 1294 C1035 1366 973 1425 877 1425 C783 1425 721 1366 721 1294 L721 1294 Z " />
<glyph glyph-name="yacute" unicode="&#xfd;" horiz-adv-x="1250" d="M817 1041 L610 491 L589 564 L410 1042 L5 1042 L417 77 L209 -359 L606 -359 L1211 1043 L817 1041 Z M664 1486 L467 1153 L723 1153 L929 1393 L664 1486 Z " />
<glyph glyph-name="thorn" unicode="&#xfe;" horiz-adv-x="1326" d="M938 522 C938 367 835 270 709 270 C581 270 481 366 481 522 C481 674 583 771 711 771 C840 771 938 675 938 522 L938 522 Z M498 -343 L498 29 C563 -9 645 -35 746 -36 C1094 -39 1306 216 1306 521 C1306 825 1103 1079 753 1079 C648 1079 564 1052 498 1013 L498 1409 L132 1409 L132 -343 L498 -343 Z " />
<glyph glyph-name="ydieresis" unicode="&#xff;" horiz-adv-x="1250" d="M817 1041 L610 491 L589 564 L410 1042 L5 1042 L417 77 L209 -359 L606 -359 L1211 1043 L817 1041 Z M225 1294 C225 1221 286 1162 382 1162 C477 1162 539 1221 539 1294 C539 1366 478 1425 382 1425 C287 1425 225 1366 225 1294 L225 1294 Z M633 1294 C633 1221 693 1162 789 1162 C884 1162 947 1221 947 1294 C947 1366 885 1425 789 1425 C695 1425 633 1366 633 1294 L633 1294 Z " />
<glyph glyph-name="Amacron" unicode="&#x100;" horiz-adv-x="1500" d="M746 873 L750 873 L760 823 L886 495 L609 495 L735 823 L746 873 Z M1474 0 L924 1361 L572 1361 L22 0 L420 0 L490 184 L1005 184 L1076 0 L1474 0 Z M1063 1525 L1063 1731 L429 1731 L429 1525 L1063 1525 Z " />
<glyph glyph-name="amacron" unicode="&#x101;" horiz-adv-x="1395" d="M455 522 C455 675 553 771 683 771 C810 771 912 674 912 522 C912 366 812 270 685 270 C558 270 455 367 455 522 L455 522 Z M88 521 C88 216 299 -35 647 -35 C767 -35 867 6 939 56 L951 0 L1262 0 L1262 1043 L951 1043 L939 988 C868 1037 770 1078 648 1078 C297 1078 88 825 88 521 L88 521 Z M977 1215 L977 1421 L343 1421 L343 1215 L977 1215 Z " />
<glyph glyph-name="Abreve" unicode="&#x102;" horiz-adv-x="1500" d="M746 873 L750 873 L760 823 L886 495 L609 495 L735 823 L746 873 Z M1474 0 L924 1361 L572 1361 L22 0 L420 0 L490 184 L1005 184 L1076 0 L1474 0 Z M857 1878 C833 1823 816 1792 748 1792 C680 1792 663 1823 637 1878 L391 1863 C402 1683 520 1548 748 1548 C975 1548 1093 1683 1105 1863 L857 1878 Z " />
<glyph glyph-name="abreve" unicode="&#x103;" horiz-adv-x="1395" d="M455 522 C455 675 553 771 683 771 C810 771 912 674 912 522 C912 366 812 270 685 270 C558 270 455 367 455 522 L455 522 Z M88 521 C88 216 299 -35 647 -35 C767 -35 867 6 939 56 L951 0 L1262 0 L1262 1043 L951 1043 L939 988 C868 1037 770 1078 648 1078 C297 1078 88 825 88 521 L88 521 Z M757 1481 C733 1426 716 1395 648 1395 C580 1395 563 1426 537 1481 L291 1466 C302 1286 420 1151 648 1151 C875 1151 993 1286 1005 1466 L757 1481 Z " />
<glyph glyph-name="Aogonek" unicode="&#x104;" horiz-adv-x="1500" d="M746 873 L750 873 L760 823 L886 495 L609 495 L735 823 L746 873 Z M1155 0 C1046 -75 933 -173 933 -304 C933 -424 1020 -500 1182 -500 C1300 -500 1403 -445 1463 -386 L1396 -232 C1346 -264 1318 -273 1285 -273 C1258 -273 1245 -260 1245 -235 C1245 -155 1398 -51 1473 0 L1474 0 L924 1361 L572 1361 L22 0 L420 0 L490 184 L1005 184 L1076 0 L1155 0 Z " />
<glyph glyph-name="aogonek" unicode="&#x105;" horiz-adv-x="1395" d="M455 522 C455 675 553 771 683 771 C810 771 912 674 912 522 C912 366 812 270 685 270 C558 270 455 367 455 522 L455 522 Z M950 4 C840 -71 722 -171 722 -304 C722 -424 809 -500 971 -500 C1089 -500 1192 -445 1252 -386 L1185 -232 C1135 -264 1107 -273 1074 -273 C1047 -273 1034 -260 1034 -235 C1034 -155 1187 -51 1262 0 L1262 1043 L951 1043 L939 988 C868 1037 770 1078 648 1078 C297 1078 88 825 88 521 C88 216 299 -35 647 -35 C767 -35 867 6 939 56 L950 4 Z " />
<glyph glyph-name="Cacute" unicode="&#x106;" horiz-adv-x="1655" d="M1559 834 C1491 1221 1127 1395 836 1395 C421 1395 86 1078 86 682 C86 287 421 -33 836 -33 C1130 -33 1489 153 1558 525 L1173 525 C1128 363 980 281 836 281 C629 281 462 453 462 681 C462 910 629 1081 836 1081 C981 1081 1130 996 1175 835 L1559 834 Z M722 1550 L978 1550 L1184 1790 L919 1883 L722 1550 Z " />
<glyph glyph-name="cacute" unicode="&#x107;" horiz-adv-x="1317" d="M455 522 C455 679 554 771 675 771 C762 771 837 722 873 638 L1247 639 C1193 891 981 1079 673 1079 C322 1079 87 824 88 521 C88 218 323 -35 673 -35 C981 -35 1198 156 1247 406 L873 406 C837 321 762 273 675 273 C554 273 455 365 455 522 L455 522 Z M744 1486 L547 1153 L803 1153 L1009 1393 L744 1486 Z " />
<glyph glyph-name="Ccircumflex" unicode="&#x108;" horiz-adv-x="1655" d="M1559 834 C1491 1221 1127 1395 836 1395 C421 1395 86 1078 86 682 C86 287 421 -33 836 -33 C1130 -33 1489 153 1558 525 L1173 525 C1128 363 980 281 836 281 C629 281 462 453 462 681 C462 910 629 1081 836 1081 C981 1081 1130 996 1175 835 L1559 834 Z M464 1728 L569 1535 L834 1673 L1098 1535 L1203 1728 L832 1935 L464 1728 Z " />
<glyph glyph-name="ccircumflex" unicode="&#x109;" horiz-adv-x="1317" d="M455 522 C455 679 554 771 675 771 C762 771 837 722 873 638 L1247 639 C1193 891 981 1079 673 1079 C322 1079 87 824 88 521 C88 218 323 -35 673 -35 C981 -35 1198 156 1247 406 L873 406 C837 321 762 273 675 273 C554 273 455 365 455 522 L455 522 Z M675 1538 L307 1331 L412 1138 L677 1276 L941 1138 L1046 1331 L675 1538 Z " />
<glyph glyph-name="Cdotaccent" unicode="&#x10a;" horiz-adv-x="1655" d="M1559 834 C1491 1221 1127 1395 836 1395 C421 1395 86 1078 86 682 C86 287 421 -33 836 -33 C1130 -33 1489 153 1558 525 L1173 525 C1128 363 980 281 836 281 C629 281 462 453 462 681 C462 910 629 1081 836 1081 C981 1081 1130 996 1175 835 L1559 834 Z M703 1690 C703 1618 764 1558 860 1558 C955 1558 1018 1618 1018 1690 C1018 1763 956 1822 860 1822 C765 1822 703 1763 703 1690 L703 1690 Z " />
<glyph glyph-name="cdotaccent" unicode="&#x10b;" horiz-adv-x="1317" d="M455 522 C455 679 554 771 675 771 C762 771 837 722 873 638 L1247 639 C1193 891 981 1079 673 1079 C322 1079 87 824 88 521 C88 218 323 -35 673 -35 C981 -35 1198 156 1247 406 L873 406 C837 321 762 273 675 273 C554 273 455 365 455 522 L455 522 Z M519 1293 C519 1221 580 1161 676 1161 C771 1161 834 1221 834 1293 C834 1366 772 1425 676 1425 C581 1425 519 1366 519 1293 L519 1293 Z " />
<glyph glyph-name="Ccaron" unicode="&#x10c;" horiz-adv-x="1655" d="M1559 834 C1491 1221 1127 1395 836 1395 C421 1395 86 1078 86 682 C86 287 421 -33 836 -33 C1130 -33 1489 153 1558 525 L1173 525 C1128 363 980 281 836 281 C629 281 462 453 462 681 C462 910 629 1081 836 1081 C981 1081 1130 996 1175 835 L1559 834 Z M1111 1929 L847 1791 L582 1929 L477 1738 L845 1529 L1216 1738 L1111 1929 Z " />
<glyph glyph-name="ccaron" unicode="&#x10d;" horiz-adv-x="1317" d="M455 522 C455 679 554 771 675 771 C762 771 837 722 873 638 L1247 639 C1193 891 981 1079 673 1079 C322 1079 87 824 88 521 C88 218 323 -35 673 -35 C981 -35 1198 156 1247 406 L873 406 C837 321 762 273 675 273 C554 273 455 365 455 522 L455 522 Z M1046 1342 L941 1533 L677 1395 L412 1533 L307 1342 L675 1133 L1046 1342 Z " />
<glyph glyph-name="Dcaron" unicode="&#x10e;" horiz-adv-x="1528" d="M505 1045 L697 1045 C942 1045 1059 907 1059 677 C1059 439 931 314 697 314 L505 314 L505 1045 Z M705 0 C1174 0 1435 276 1435 681 C1435 1125 1116 1360 702 1360 L128 1360 L128 0 L705 0 Z M992 1930 L728 1792 L463 1930 L358 1739 L726 1530 L1097 1739 L992 1930 Z " />
<glyph glyph-name="dcaron" unicode="&#x10f;" horiz-adv-x="1695" d="M455 522 C455 675 554 771 683 771 C811 771 913 674 913 522 C913 366 812 270 685 270 C558 270 455 367 455 522 L455 522 Z M88 521 C88 216 300 -36 647 -36 C767 -36 865 7 937 62 L951 0 L1262 0 L1262 1409 L895 1409 L895 1013 C828 1052 744 1079 641 1079 C290 1079 88 825 88 521 L88 521 Z M1308 866 L1570 857 L1811 1432 L1489 1459 L1308 866 Z " />
<glyph glyph-name="Dcroat" unicode="&#x110;" horiz-adv-x="1510" d="M-16 552 L124 552 L124 0 L701 0 C1169 0 1431 276 1431 681 C1431 1125 1112 1360 698 1360 L124 1360 L124 793 L-16 793 L-16 552 Z M501 314 L501 552 L615 552 L615 793 L501 793 L501 1045 L693 1045 C938 1045 1055 907 1055 677 C1055 439 927 314 693 314 L501 314 Z " />
<glyph glyph-name="dcroat" unicode="&#x111;" horiz-adv-x="1395" d="M455 522 C455 675 554 771 683 771 C811 771 913 674 913 522 C913 366 812 270 685 270 C558 270 455 367 455 522 L455 522 Z M895 1013 C828 1052 744 1079 641 1079 C290 1079 88 825 88 521 C88 216 300 -36 647 -36 C767 -36 865 7 937 62 L951 0 L1262 0 L1262 1138 L1342 1138 L1342 1359 L1262 1359 L1262 1409 L895 1409 L895 1359 L693 1359 L693 1138 L895 1138 L895 1013 Z " />
<glyph glyph-name="Emacron" unicode="&#x112;" horiz-adv-x="1204" d="M127 0 L1118 0 L1118 314 L504 314 L504 516 L1020 516 L1020 829 L504 829 L504 1046 L1109 1046 L1109 1360 L127 1360 L127 0 Z M297 1525 L931 1525 L931 1731 L297 1731 L297 1525 Z " />
<glyph glyph-name="emacron" unicode="&#x113;" horiz-adv-x="1352" d="M676 795 C770 795 834 745 868 670 L470 670 C507 746 577 795 676 795 L676 795 Z M89 521 C90 218 325 -35 674 -35 C983 -35 1178 158 1233 342 L836 342 C810 295 754 257 676 257 C582 257 492 321 456 423 L1253 423 C1258 450 1264 473 1264 521 C1264 826 1027 1078 674 1078 C324 1078 89 825 89 521 L89 521 Z M987 1155 L987 1361 L353 1361 L353 1155 L987 1155 Z " />
<glyph glyph-name="Ebreve" unicode="&#x114;" horiz-adv-x="1204" d="M127 0 L1118 0 L1118 314 L504 314 L504 516 L1020 516 L1020 829 L504 829 L504 1046 L1109 1046 L1109 1360 L127 1360 L127 0 Z M746 1878 C722 1823 705 1792 637 1792 C569 1792 552 1823 526 1878 L280 1863 C291 1683 409 1548 637 1548 C864 1548 982 1683 994 1863 L746 1878 Z " />
<glyph glyph-name="ebreve" unicode="&#x115;" horiz-adv-x="1352" d="M676 795 C770 795 834 745 868 670 L470 670 C507 746 577 795 676 795 L676 795 Z M89 521 C90 218 325 -35 674 -35 C983 -35 1178 158 1233 342 L836 342 C810 295 754 257 676 257 C582 257 492 321 456 423 L1253 423 C1258 450 1264 473 1264 521 C1264 826 1027 1078 674 1078 C324 1078 89 825 89 521 L89 521 Z M774 1481 C750 1426 733 1395 665 1395 C597 1395 580 1426 554 1481 L308 1466 C319 1286 437 1151 665 1151 C892 1151 1010 1286 1022 1466 L774 1481 Z " />
<glyph glyph-name="Edotaccent" unicode="&#x116;" horiz-adv-x="1204" d="M127 0 L1118 0 L1118 314 L504 314 L504 516 L1020 516 L1020 829 L504 829 L504 1046 L1109 1046 L1109 1360 L127 1360 L127 0 Z M471 1690 C471 1618 532 1558 628 1558 C723 1558 786 1618 786 1690 C786 1763 724 1822 628 1822 C533 1822 471 1763 471 1690 L471 1690 Z " />
<glyph glyph-name="edotaccent" unicode="&#x117;" horiz-adv-x="1352" d="M676 795 C770 795 834 745 868 670 L470 670 C507 746 577 795 676 795 L676 795 Z M89 521 C90 218 325 -35 674 -35 C983 -35 1178 158 1233 342 L836 342 C810 295 754 257 676 257 C582 257 492 321 456 423 L1253 423 C1258 450 1264 473 1264 521 C1264 826 1027 1078 674 1078 C324 1078 89 825 89 521 L89 521 Z M531 1292 C531 1220 592 1160 688 1160 C783 1160 846 1220 846 1292 C846 1365 784 1424 688 1424 C593 1424 531 1365 531 1292 L531 1292 Z " />
<glyph glyph-name="Eogonek" unicode="&#x118;" horiz-adv-x="1204" d="M800 0 C691 -75 578 -173 578 -304 C578 -424 665 -500 827 -500 C945 -500 1048 -445 1108 -386 L1041 -232 C991 -264 963 -273 930 -273 C903 -273 890 -260 890 -235 C890 -155 1043 -51 1118 0 L1118 314 L504 314 L504 516 L1020 516 L1020 829 L504 829 L504 1046 L1109 1046 L1109 1360 L127 1360 L127 0 L800 0 Z " />
<glyph glyph-name="eogonek" unicode="&#x119;" horiz-adv-x="1352" d="M676 795 C770 795 834 745 868 670 L470 670 C507 746 577 795 676 795 L676 795 Z M589 -30 C534 -86 494 -153 494 -230 C494 -350 581 -426 743 -426 C861 -426 964 -371 1024 -312 L957 -158 C907 -190 879 -199 846 -199 C819 -199 806 -186 806 -161 C806 -88 932 4 1011 59 C1127 132 1202 238 1233 342 L836 342 C810 295 754 257 676 257 C582 257 492 321 456 423 L1253 423 C1258 450 1264 473 1264 521 C1264 826 1027 1078 674 1078 C324 1078 89 825 89 521 C90 243 287 8 589 -30 L589 -30 Z " />
<glyph glyph-name="Ecaron" unicode="&#x11a;" horiz-adv-x="1204" d="M127 0 L1118 0 L1118 314 L504 314 L504 516 L1020 516 L1020 829 L504 829 L504 1046 L1109 1046 L1109 1360 L127 1360 L127 0 Z M1008 1739 L903 1930 L639 1792 L374 1930 L269 1739 L637 1530 L1008 1739 Z " />
<glyph glyph-name="ecaron" unicode="&#x11b;" horiz-adv-x="1352" d="M676 795 C770 795 834 745 868 670 L470 670 C507 746 577 795 676 795 L676 795 Z M89 521 C90 218 325 -35 674 -35 C983 -35 1178 158 1233 342 L836 342 C810 295 754 257 676 257 C582 257 492 321 456 423 L1253 423 C1258 450 1264 473 1264 521 C1264 826 1027 1078 674 1078 C324 1078 89 825 89 521 L89 521 Z M944 1533 L680 1395 L415 1533 L310 1342 L678 1133 L1049 1342 L944 1533 Z " />
<glyph glyph-name="Gcircumflex" unicode="&#x11c;" horiz-adv-x="1619" d="M823 477 L1154 477 C1121 355 1024 281 836 281 C629 281 462 453 462 681 C462 910 629 1081 836 1081 C957 1081 1061 1024 1126 937 L1371 1182 C1232 1316 1044 1395 836 1395 C421 1395 86 1078 86 682 C86 287 421 -33 836 -33 C1249 -33 1553 275 1528 741 L824 741 L823 477 Z M833 1935 L465 1728 L570 1535 L835 1673 L1099 1535 L1204 1728 L833 1935 Z " />
<glyph glyph-name="gcircumflex" unicode="&#x11d;" horiz-adv-x="1390" d="M455 522 C455 675 554 771 683 771 C810 771 913 674 913 522 C913 366 812 270 685 270 C558 270 455 367 455 522 L455 522 Z M87 521 C87 216 298 -13 612 -13 C731 -13 828 24 901 72 L901 46 C901 -35 859 -167 694 -167 C585 -167 536 -118 512 -46 L163 -47 C169 -242 305 -462 695 -462 C1033 -462 1262 -264 1262 66 L1262 1043 L967 1043 L950 980 C878 1033 776 1078 648 1078 C297 1078 87 825 87 521 L87 521 Z M284 1331 L389 1138 L654 1276 L918 1138 L1023 1331 L652 1538 L284 1331 Z " />
<glyph glyph-name="Gbreve" unicode="&#x11e;" horiz-adv-x="1619" d="M823 477 L1154 477 C1121 355 1024 281 836 281 C629 281 462 453 462 681 C462 910 629 1081 836 1081 C957 1081 1061 1024 1126 937 L1371 1182 C1232 1316 1044 1395 836 1395 C421 1395 86 1078 86 682 C86 287 421 -33 836 -33 C1249 -33 1553 275 1528 741 L824 741 L823 477 Z M948 1878 C924 1823 907 1792 839 1792 C771 1792 754 1823 728 1878 L482 1863 C493 1683 611 1548 839 1548 C1066 1548 1184 1683 1196 1863 L948 1878 Z " />
<glyph glyph-name="gbreve" unicode="&#x11f;" horiz-adv-x="1390" d="M455 522 C455 675 554 771 683 771 C810 771 913 674 913 522 C913 366 812 270 685 270 C558 270 455 367 455 522 L455 522 Z M87 521 C87 216 298 -13 612 -13 C731 -13 828 24 901 72 L901 46 C901 -35 859 -167 694 -167 C585 -167 536 -118 512 -46 L163 -47 C169 -242 305 -462 695 -462 C1033 -462 1262 -264 1262 66 L1262 1043 L967 1043 L950 980 C878 1033 776 1078 648 1078 C297 1078 87 825 87 521 L87 521 Z M762 1481 C738 1426 721 1395 653 1395 C585 1395 568 1426 542 1481 L296 1466 C307 1286 425 1151 653 1151 C880 1151 998 1286 1010 1466 L762 1481 Z " />
<glyph glyph-name="Gdotaccent" unicode="&#x120;" horiz-adv-x="1619" d="M823 477 L1154 477 C1121 355 1024 281 836 281 C629 281 462 453 462 681 C462 910 629 1081 836 1081 C957 1081 1061 1024 1126 937 L1371 1182 C1232 1316 1044 1395 836 1395 C421 1395 86 1078 86 682 C86 287 421 -33 836 -33 C1249 -33 1553 275 1528 741 L824 741 L823 477 Z M690 1690 C690 1618 751 1558 847 1558 C942 1558 1005 1618 1005 1690 C1005 1763 943 1822 847 1822 C752 1822 690 1763 690 1690 L690 1690 Z " />
<glyph glyph-name="gdotaccent" unicode="&#x121;" horiz-adv-x="1390" d="M455 522 C455 675 554 771 683 771 C810 771 913 674 913 522 C913 366 812 270 685 270 C558 270 455 367 455 522 L455 522 Z M87 521 C87 216 298 -13 612 -13 C731 -13 828 24 901 72 L901 46 C901 -35 859 -167 694 -167 C585 -167 536 -118 512 -46 L163 -47 C169 -242 305 -462 695 -462 C1033 -462 1262 -264 1262 66 L1262 1043 L967 1043 L950 980 C878 1033 776 1078 648 1078 C297 1078 87 825 87 521 L87 521 Z M500 1293 C500 1221 561 1161 657 1161 C752 1161 815 1221 815 1293 C815 1366 753 1425 657 1425 C562 1425 500 1366 500 1293 L500 1293 Z " />
<glyph glyph-name="Gcommaaccent" unicode="&#x122;" horiz-adv-x="1619" d="M823 477 L1154 477 C1121 355 1024 281 836 281 C629 281 462 453 462 681 C462 910 629 1081 836 1081 C957 1081 1061 1024 1126 937 L1371 1182 C1232 1316 1044 1395 836 1395 C421 1395 86 1078 86 682 C86 287 421 -33 836 -33 C1249 -33 1553 275 1528 741 L824 741 L823 477 Z M683 -83 L558 -499 L820 -507 L1004 -110 L683 -83 Z " />
<glyph glyph-name="gcommaaccent" unicode="&#x123;" horiz-adv-x="1390" d="M455 522 C455 675 554 771 683 771 C810 771 913 674 913 522 C913 366 812 270 685 270 C558 270 455 367 455 522 L455 522 Z M87 521 C87 216 298 -13 612 -13 C731 -13 828 24 901 72 L901 46 C901 -35 859 -167 694 -167 C585 -167 536 -118 512 -46 L163 -47 C169 -242 305 -462 695 -462 C1033 -462 1262 -264 1262 66 L1262 1043 L967 1043 L950 980 C878 1033 776 1078 648 1078 C297 1078 87 825 87 521 L87 521 Z M512 1201 L774 1192 L1015 1767 L693 1794 L512 1201 Z " />
<glyph glyph-name="Hcircumflex" unicode="&#x124;" horiz-adv-x="1520" d="M127 0 L504 0 L504 516 L1015 516 L1015 0 L1393 0 L1393 1360 L1015 1360 L1015 829 L504 829 L504 1360 L127 1360 L127 0 Z M757 1935 L389 1728 L494 1535 L759 1673 L1023 1535 L1128 1728 L757 1935 Z " />
<glyph glyph-name="hcircumflex" unicode="&#x125;" horiz-adv-x="1349" d="M1235 558 C1235 875 1100 1078 763 1078 C663 1078 569 1040 494 995 L496 1409 L132 1409 L132 0 L498 0 L498 541 C498 672 571 771 689 771 C795 771 867 732 867 551 L867 0 L1235 0 L1235 558 Z M295 1874 L-73 1667 L32 1474 L297 1612 L561 1474 L666 1667 L295 1874 Z " />
<glyph glyph-name="Hbar" unicode="&#x126;" horiz-adv-x="1520" d="M1015 998 L1015 829 L504 829 L504 998 L1015 998 Z M504 516 L1015 516 L1015 0 L1393 0 L1393 1360 L1015 1360 L1015 1239 L504 1239 L504 1360 L127 1360 L127 0 L504 0 L504 516 Z " />
<glyph glyph-name="hbar" unicode="&#x127;" horiz-adv-x="1349" d="M132 1125 L132 0 L498 0 L498 541 C498 672 571 771 689 771 C795 771 867 732 867 551 L867 0 L1235 0 L1235 558 C1235 875 1100 1078 763 1078 C663 1078 569 1040 494 995 L495 1125 L661 1125 L661 1301 L495 1301 L496 1409 L132 1409 L132 1301 L36 1301 L36 1125 L132 1125 Z " />
<glyph glyph-name="Itilde" unicode="&#x128;" horiz-adv-x="632" d="M127 0 L504 0 L504 1360 L127 1360 L127 0 Z M534 1821 C514 1767 482 1744 445 1744 C386 1744 330 1803 207 1807 C87 1807 -4 1711 -37 1601 L107 1500 C134 1558 161 1565 191 1565 C236 1565 317 1506 440 1506 C558 1506 641 1595 681 1718 L534 1821 Z " />
<glyph glyph-name="itilde" unicode="&#x129;" horiz-adv-x="632" d="M132 0 L501 0 L501 1043 L132 1043 L132 0 Z M505 1424 C485 1370 453 1347 416 1347 C357 1347 301 1406 178 1410 C58 1410 -33 1314 -66 1204 L78 1103 C105 1161 132 1168 162 1168 C207 1168 288 1109 411 1109 C529 1109 612 1198 652 1321 L505 1424 Z " />
<glyph glyph-name="Imacron" unicode="&#x12a;" horiz-adv-x="632" d="M127 0 L504 0 L504 1360 L127 1360 L127 0 Z M5 1525 L639 1525 L639 1731 L5 1731 L5 1525 Z " />
<glyph glyph-name="imacron" unicode="&#x12b;" horiz-adv-x="632" d="M132 0 L501 0 L501 1043 L132 1043 L132 0 Z M0 1164 L634 1164 L634 1370 L0 1370 L0 1164 Z " />
<glyph glyph-name="Ibreve" unicode="&#x12c;" horiz-adv-x="632" d="M127 0 L504 0 L504 1360 L127 1360 L127 0 Z M431 1870 C407 1815 390 1784 322 1784 C254 1784 237 1815 211 1870 L-35 1855 C-24 1675 94 1540 322 1540 C549 1540 667 1675 679 1855 L431 1870 Z " />
<glyph glyph-name="ibreve" unicode="&#x12d;" horiz-adv-x="632" d="M132 0 L501 0 L501 1043 L132 1043 L132 0 Z M404 1481 C380 1426 363 1395 295 1395 C227 1395 210 1426 184 1481 L-62 1466 C-51 1286 67 1151 295 1151 C522 1151 640 1286 652 1466 L404 1481 Z " />
<glyph glyph-name="Iogonek" unicode="&#x12e;" horiz-adv-x="632" d="M183 0 C75 -75 -36 -173 -36 -302 C-36 -422 51 -498 213 -498 C331 -498 434 -443 494 -384 L427 -230 C377 -262 349 -271 316 -271 C289 -271 276 -258 276 -233 C276 -154 425 -52 501 0 L504 0 L504 1360 L127 1360 L127 0 L183 0 Z " />
<glyph glyph-name="iogonek" unicode="&#x12f;" horiz-adv-x="632" d="M145 0 C37 -75 -74 -173 -74 -302 C-74 -422 13 -498 175 -498 C293 -498 396 -443 456 -384 L389 -230 C339 -262 311 -271 278 -271 C251 -271 238 -258 238 -233 C238 -154 387 -52 463 0 L501 0 L501 1043 L132 1043 L132 0 L145 0 Z M106 1314 C106 1214 191 1131 318 1131 C449 1131 533 1212 533 1314 C533 1414 449 1497 319 1497 C190 1497 106 1414 106 1314 L106 1314 Z " />
<glyph glyph-name="Idotaccent" unicode="&#x130;" horiz-adv-x="632" d="M127 0 L504 0 L504 1360 L127 1360 L127 0 Z M164 1690 C164 1618 225 1558 321 1558 C416 1558 479 1618 479 1690 C479 1763 417 1822 321 1822 C226 1822 164 1763 164 1690 L164 1690 Z " />
<glyph glyph-name="dotlessi" unicode="&#x131;" horiz-adv-x="633" d="M132 0 L501 0 L501 1043 L132 1043 L132 0 Z " />
<glyph glyph-name="IJ" unicode="&#x132;" horiz-adv-x="1275" d="M122 0 L642 0 C935 0 1160 158 1160 461 L1160 1360 L785 1360 L784 462 C784 366 729 315 643 315 L122 315 L122 0 Z M127 522 L504 522 L504 1360 L127 1360 L127 522 Z " />
<glyph glyph-name="ij" unicode="&#x133;" horiz-adv-x="1291" d="M132 0 L786 0 C778 -66 743 -101 697 -101 L582 -101 L582 -403 L712 -403 C953 -403 1158 -282 1158 27 L1158 1043 L788 1043 L788 310 L501 310 L501 1043 L132 1043 L132 0 Z M746 1297 C746 1197 831 1114 958 1114 C1089 1114 1173 1196 1173 1297 C1173 1397 1089 1481 959 1481 C830 1481 746 1397 746 1297 L746 1297 Z M106 1297 C106 1197 191 1114 318 1114 C449 1114 533 1196 533 1297 C533 1397 449 1481 319 1481 C190 1481 106 1397 106 1297 L106 1297 Z " />
<glyph glyph-name="Jcircumflex" unicode="&#x134;" horiz-adv-x="875" d="M51 0 L239 0 C532 0 757 158 757 461 L757 1360 L383 1360 L382 462 C382 366 326 315 240 315 L51 315 L51 0 Z M569 1889 L201 1682 L306 1489 L571 1627 L835 1489 L940 1682 L569 1889 Z " />
<glyph glyph-name="jcircumflex" unicode="&#x135;" horiz-adv-x="633" d="M132 1043 L132 31 C132 -56 93 -101 40 -101 L-75 -101 L-75 -403 L55 -403 C297 -403 502 -282 502 27 L502 1043 L132 1043 Z M295 1538 L-73 1331 L32 1138 L297 1276 L561 1138 L666 1331 L295 1538 Z " />
<glyph glyph-name="Kcommaaccent" unicode="&#x136;" horiz-adv-x="1428" d="M504 1360 L127 1360 L127 0 L504 0 L504 255 L677 483 L965 0 L1409 0 L923 753 L1393 1360 L956 1360 L504 752 L504 1360 Z M576 -83 L451 -499 L713 -507 L897 -110 L576 -83 Z " />
<glyph glyph-name="kcommaaccent" unicode="&#x137;" horiz-adv-x="1258" d="M132 0 L498 0 L498 247 L601 379 L799 0 L1234 0 L865 612 L1202 1043 L773 1043 L498 666 L498 1409 L132 1409 L132 0 Z M492 -83 L367 -499 L629 -507 L813 -110 L492 -83 Z " />
<glyph glyph-name="kgreenlandic" unicode="&#x138;" horiz-adv-x="1258" d="M132 0 L498 0 L498 247 L601 379 L799 0 L1234 0 L865 612 L1202 1043 L773 1043 L498 666 L498 1042 L132 1042 L132 0 Z " />
<glyph glyph-name="Lacute" unicode="&#x139;" horiz-adv-x="1113" d="M127 0 L1036 0 L1036 314 L504 314 L504 1360 L127 1360 L127 0 Z M420 1779 L223 1446 L479 1446 L685 1686 L420 1779 Z " />
<glyph glyph-name="lacute" unicode="&#x13a;" horiz-adv-x="632" d="M132 0 L498 0 L498 1409 L132 1409 L132 0 Z M406 1868 L209 1535 L465 1535 L671 1775 L406 1868 Z " />
<glyph glyph-name="Lcommaaccent" unicode="&#x13b;" horiz-adv-x="1113" d="M127 0 L1036 0 L1036 314 L504 314 L504 1360 L127 1360 L127 0 Z M452 -126 L327 -542 L589 -550 L773 -153 L452 -126 Z " />
<glyph glyph-name="lcommaaccent" unicode="&#x13c;" horiz-adv-x="632" d="M132 0 L498 0 L498 1409 L132 1409 L132 0 Z M164 -83 L39 -499 L301 -507 L485 -110 L164 -83 Z " />
<glyph glyph-name="Lcaron" unicode="&#x13d;" horiz-adv-x="1113" d="M127 0 L1036 0 L1036 314 L504 314 L504 1360 L127 1360 L127 0 Z M853 1352 L672 759 L934 750 L1175 1325 L853 1352 Z " />
<glyph glyph-name="lcaron" unicode="&#x13e;" horiz-adv-x="894" d="M132 0 L498 0 L498 1409 L132 1409 L132 0 Z M745 1539 L564 946 L826 937 L1067 1512 L745 1539 Z " />
<glyph glyph-name="Ldot" unicode="&#x13f;" horiz-adv-x="1483" d="M127 0 L1036 0 L1036 314 L504 314 L504 1360 L127 1360 L127 0 Z M668 672 C668 573 744 491 861 491 C980 491 1056 572 1056 672 C1056 769 980 851 862 851 C743 851 668 769 668 672 L668 672 Z " />
<glyph glyph-name="ldot" unicode="&#x140;" horiz-adv-x="1029" d="M600 695 C600 592 678 507 799 507 C923 507 1002 591 1002 695 C1002 796 923 882 800 882 C677 882 600 796 600 695 L600 695 Z M132 0 L498 0 L498 1409 L132 1409 L132 0 Z " />
<glyph glyph-name="Lslash" unicode="&#x141;" horiz-adv-x="1255" d="M270 0 L1178 0 L1178 314 L647 314 L647 625 L780 681 L779 970 L647 913 L647 1360 L270 1360 L270 753 L127 692 L127 409 L270 468 L270 0 Z " />
<glyph glyph-name="lslash" unicode="&#x142;" horiz-adv-x="622" d="M135 0 L502 0 L502 601 L603 644 L604 935 L502 890 L502 1409 L135 1409 L135 730 L28 684 L29 399 L135 444 L135 0 Z " />
<glyph glyph-name="Nacute" unicode="&#x143;" horiz-adv-x="1528" d="M1401 1360 L1025 1360 L1025 631 L458 1360 L127 1360 L127 0 L504 0 L504 732 L1074 0 L1401 0 L1401 1360 Z M895 1851 L698 1518 L954 1518 L1160 1758 L895 1851 Z " />
<glyph glyph-name="nacute" unicode="&#x144;" horiz-adv-x="1342" d="M1235 557 C1235 874 1100 1078 763 1078 C649 1078 530 1033 444 981 L425 1043 L132 1043 L132 0 L498 0 L498 514 C498 660 571 771 709 771 C795 771 867 722 867 549 L867 0 L1235 0 L1235 557 Z M770 1486 L573 1153 L829 1153 L1035 1393 L770 1486 Z " />
<glyph glyph-name="Ncommaaccent" unicode="&#x145;" horiz-adv-x="1528" d="M1401 1360 L1025 1360 L1025 631 L458 1360 L127 1360 L127 0 L504 0 L504 732 L1074 0 L1401 0 L1401 1360 Z M662 -83 L537 -499 L799 -507 L983 -110 L662 -83 Z " />
<glyph glyph-name="ncommaaccent" unicode="&#x146;" horiz-adv-x="1342" d="M1235 557 C1235 874 1100 1078 763 1078 C649 1078 530 1033 444 981 L425 1043 L132 1043 L132 0 L498 0 L498 514 C498 660 571 771 709 771 C795 771 867 722 867 549 L867 0 L1235 0 L1235 557 Z M561 -83 L436 -499 L698 -507 L882 -110 L561 -83 Z " />
<glyph glyph-name="Ncaron" unicode="&#x147;" horiz-adv-x="1528" d="M1401 1360 L1025 1360 L1025 631 L458 1360 L127 1360 L127 0 L504 0 L504 732 L1074 0 L1401 0 L1401 1360 Z M1130 1707 L1025 1898 L761 1760 L496 1898 L391 1707 L759 1498 L1130 1707 Z " />
<glyph glyph-name="ncaron" unicode="&#x148;" horiz-adv-x="1342" d="M1235 557 C1235 874 1100 1078 763 1078 C649 1078 530 1033 444 981 L425 1043 L132 1043 L132 0 L498 0 L498 514 C498 660 571 771 709 771 C795 771 867 722 867 549 L867 0 L1235 0 L1235 557 Z M1078 1342 L973 1533 L709 1395 L444 1533 L339 1342 L707 1133 L1078 1342 Z " />
<glyph glyph-name="napostrophe" unicode="&#x149;" horiz-adv-x="1397" d="M1289 557 C1289 874 1154 1078 817 1078 C703 1078 584 1033 498 981 L479 1043 L186 1043 L186 0 L552 0 L552 514 C552 660 625 771 763 771 C849 771 921 722 921 549 L921 0 L1289 0 L1289 557 Z M-61 1441 L-186 1025 L76 1017 L260 1414 L-61 1441 Z " />
<glyph glyph-name="Eng" unicode="&#x14a;" horiz-adv-x="1528" d="M1403 1360 L1028 1360 L1028 630 L459 1360 L127 1360 L127 0 L504 0 L504 734 L1029 59 L1028 -342 L1403 -342 L1403 1360 Z " />
<glyph glyph-name="eng" unicode="&#x14b;" horiz-adv-x="1342" d="M1235 558 C1235 875 1100 1078 763 1078 C641 1078 528 1023 449 965 L425 1043 L132 1043 L132 0 L498 0 L498 541 C498 672 571 771 689 771 C795 771 867 732 867 551 L867 -343 L1235 -343 L1235 558 Z " />
<glyph glyph-name="Omacron" unicode="&#x14c;" horiz-adv-x="1673" d="M86 682 C86 287 421 -33 836 -33 C1249 -33 1586 287 1586 682 C1586 1078 1249 1395 836 1395 C421 1395 86 1078 86 682 L86 682 Z M462 681 C462 910 629 1081 836 1081 C1045 1081 1210 910 1210 681 C1210 453 1045 281 836 281 C629 281 462 453 462 681 L462 681 Z M480 1525 L1114 1525 L1114 1731 L480 1731 L480 1525 Z " />
<glyph glyph-name="omacron" unicode="&#x14d;" horiz-adv-x="1352" d="M89 521 C89 216 325 -35 672 -35 C1027 -35 1263 214 1263 521 C1263 826 1027 1078 674 1078 C324 1078 89 825 89 521 L89 521 Z M456 522 C456 675 552 771 676 771 C799 771 896 674 896 522 C896 367 801 271 677 271 C555 271 456 368 456 522 L456 522 Z M369 1198 L1003 1198 L1003 1404 L369 1404 L369 1198 Z " />
<glyph glyph-name="Obreve" unicode="&#x14e;" horiz-adv-x="1673" d="M462 681 C462 910 629 1081 836 1081 C1045 1081 1210 910 1210 681 C1210 453 1045 281 836 281 C629 281 462 453 462 681 L462 681 Z M86 682 C86 287 421 -33 836 -33 C1249 -33 1586 287 1586 682 C1586 1078 1249 1395 836 1395 C421 1395 86 1078 86 682 L86 682 Z M907 1878 C883 1823 866 1792 798 1792 C730 1792 713 1823 687 1878 L441 1863 C452 1683 570 1548 798 1548 C1025 1548 1143 1683 1155 1863 L907 1878 Z " />
<glyph glyph-name="obreve" unicode="&#x14f;" horiz-adv-x="1352" d="M456 522 C456 675 552 771 676 771 C799 771 896 674 896 522 C896 367 801 271 677 271 C555 271 456 368 456 522 L456 522 Z M89 521 C89 216 325 -35 672 -35 C1027 -35 1263 214 1263 521 C1263 826 1027 1078 674 1078 C324 1078 89 825 89 521 L89 521 Z M728 1481 C704 1426 687 1395 619 1395 C551 1395 534 1426 508 1481 L262 1466 C273 1286 391 1151 619 1151 C846 1151 964 1286 976 1466 L728 1481 Z " />
<glyph glyph-name="Ohungarumlaut" unicode="&#x150;" horiz-adv-x="1673" d="M86 682 C86 287 421 -33 836 -33 C1249 -33 1586 287 1586 682 C1586 1078 1249 1395 836 1395 C421 1395 86 1078 86 682 L86 682 Z M462 681 C462 910 629 1081 836 1081 C1045 1081 1210 910 1210 681 C1210 453 1045 281 836 281 C629 281 462 453 462 681 L462 681 Z M621 1879 L512 1545 L729 1544 L899 1874 L621 1879 Z M1001 1879 L891 1545 L1108 1544 L1279 1874 L1001 1879 Z " />
<glyph glyph-name="ohungarumlaut" unicode="&#x151;" horiz-adv-x="1352" d="M89 521 C89 216 325 -35 672 -35 C1027 -35 1263 214 1263 521 C1263 826 1027 1078 674 1078 C324 1078 89 825 89 521 L89 521 Z M456 522 C456 675 552 771 676 771 C799 771 896 674 896 522 C896 367 801 271 677 271 C555 271 456 368 456 522 L456 522 Z M417 1481 L308 1147 L525 1146 L695 1476 L417 1481 Z M797 1481 L687 1147 L904 1146 L1075 1476 L797 1481 Z " />
<glyph glyph-name="OE" unicode="&#x152;" horiz-adv-x="2184" d="M836 281 C629 281 463 453 463 681 C463 910 629 1081 836 1081 C941 1081 1053 1037 1136 922 L1136 436 C1049 320 939 281 836 281 L836 281 Z M2126 314 L1513 314 L1513 516 L2028 516 L2028 829 L1513 829 L1513 1046 L2117 1046 L2117 1360 L1136 1360 L1136 1313 C1051 1361 949 1395 836 1395 C422 1395 86 1078 86 682 C86 287 422 -33 836 -33 C950 -33 1051 1 1136 51 L1136 0 L2126 0 L2126 314 Z " />
<glyph glyph-name="oe" unicode="&#x153;" horiz-adv-x="2162" d="M456 522 C456 675 552 771 676 771 C799 771 896 674 896 522 C896 367 801 271 677 271 C555 271 456 368 456 522 L456 522 Z M1484 795 C1578 795 1642 745 1676 670 L1278 670 C1315 746 1385 795 1484 795 L1484 795 Z M1081 109 C1181 20 1319 -35 1482 -35 C1791 -35 1986 158 2041 342 L1644 342 C1618 295 1562 257 1484 257 C1390 257 1300 321 1264 423 L2061 423 C2066 450 2072 473 2072 521 C2072 826 1835 1078 1482 1078 C1319 1078 1181 1023 1080 934 C978 1023 839 1078 674 1078 C324 1078 89 825 89 521 C89 216 325 -35 672 -35 C838 -35 978 20 1081 109 L1081 109 Z " />
<glyph glyph-name="Racute" unicode="&#x154;" horiz-adv-x="1316" d="M504 735 L504 1046 L716 1046 C796 1046 862 978 862 889 C862 796 796 735 715 735 L504 735 Z M1273 0 L999 480 C1146 556 1239 700 1239 889 C1239 1168 1028 1360 732 1360 L127 1360 L127 0 L504 0 L504 421 L630 421 L842 0 L1273 0 Z M426 1518 L682 1518 L888 1758 L623 1851 L426 1518 Z " />
<glyph glyph-name="racute" unicode="&#x155;" horiz-adv-x="928" d="M870 1043 L711 1043 C594 1043 508 1007 445 962 L421 1043 L127 1043 L127 0 L494 0 L494 475 C494 646 578 731 732 732 L870 733 L870 1043 Z M429 1486 L232 1153 L488 1153 L694 1393 L429 1486 Z " />
<glyph glyph-name="Rcommaaccent" unicode="&#x156;" horiz-adv-x="1316" d="M504 735 L504 1046 L716 1046 C796 1046 862 978 862 889 C862 796 796 735 715 735 L504 735 Z M1273 0 L999 480 C1146 556 1239 700 1239 889 C1239 1168 1028 1360 732 1360 L127 1360 L127 0 L504 0 L504 421 L630 421 L842 0 L1273 0 Z M433 -499 L695 -507 L879 -110 L558 -83 L433 -499 Z " />
<glyph glyph-name="rcommaaccent" unicode="&#x157;" horiz-adv-x="928" d="M870 1043 L711 1043 C594 1043 508 1007 445 962 L421 1043 L127 1043 L127 0 L494 0 L494 475 C494 646 578 731 732 732 L870 733 L870 1043 Z M171 -81 L46 -497 L308 -505 L492 -108 L171 -81 Z " />
<glyph glyph-name="Rcaron" unicode="&#x158;" horiz-adv-x="1316" d="M504 735 L504 1046 L716 1046 C796 1046 862 978 862 889 C862 796 796 735 715 735 L504 735 Z M1273 0 L999 480 C1146 556 1239 700 1239 889 C1239 1168 1028 1360 732 1360 L127 1360 L127 0 L504 0 L504 421 L630 421 L842 0 L1273 0 Z M921 1898 L657 1760 L392 1898 L287 1707 L655 1498 L1026 1707 L921 1898 Z " />
<glyph glyph-name="rcaron" unicode="&#x159;" horiz-adv-x="928" d="M870 1043 L711 1043 C594 1043 508 1007 445 962 L421 1043 L127 1043 L127 0 L494 0 L494 475 C494 646 578 731 732 732 L870 733 L870 1043 Z M864 1348 L759 1539 L495 1401 L230 1539 L125 1348 L493 1139 L864 1348 Z " />
<glyph glyph-name="Sacute" unicode="&#x15a;" horiz-adv-x="1337" d="M67 433 C67 207 216 -36 664 -36 C992 -36 1254 111 1254 391 C1254 679 1060 768 752 844 C611 874 497 909 497 983 C497 1033 528 1079 664 1079 C804 1079 833 1011 833 950 L1211 950 C1211 1224 1031 1395 699 1395 C307 1395 120 1237 120 945 C120 676 424 616 562 574 C763 509 872 506 872 392 C872 325 826 279 672 279 C517 279 443 333 443 433 L67 433 Z M712 1883 L515 1550 L771 1550 L977 1790 L712 1883 Z " />
<glyph glyph-name="sacute" unicode="&#x15b;" horiz-adv-x="1099" d="M57 335 C57 160 183 -36 525 -36 C817 -36 1037 78 1037 339 C1037 569 858 623 625 666 C505 686 461 692 460 731 C459 762 494 788 552 788 C609 788 636 755 639 718 L1009 717 C1009 932 849 1078 579 1078 C258 1078 94 955 94 727 C94 482 286 433 395 408 C566 366 651 365 652 314 C652 277 621 255 539 255 C470 255 424 284 418 334 L57 335 Z M615 1486 L418 1153 L674 1153 L880 1393 L615 1486 Z " />
<glyph glyph-name="Scircumflex" unicode="&#x15c;" horiz-adv-x="1337" d="M67 433 C67 207 216 -36 664 -36 C992 -36 1254 111 1254 391 C1254 679 1060 768 752 844 C611 874 497 909 497 983 C497 1033 528 1079 664 1079 C804 1079 833 1011 833 950 L1211 950 C1211 1224 1031 1395 699 1395 C307 1395 120 1237 120 945 C120 676 424 616 562 574 C763 509 872 506 872 392 C872 325 826 279 672 279 C517 279 443 333 443 433 L67 433 Z M631 1935 L263 1728 L368 1535 L633 1673 L897 1535 L1002 1728 L631 1935 Z " />
<glyph glyph-name="scircumflex" unicode="&#x15d;" horiz-adv-x="1099" d="M57 335 C57 160 183 -36 525 -36 C817 -36 1037 78 1037 339 C1037 569 858 623 625 666 C505 686 461 692 460 731 C459 762 494 788 552 788 C609 788 636 755 639 718 L1009 717 C1009 932 849 1078 579 1078 C258 1078 94 955 94 727 C94 482 286 433 395 408 C566 366 651 365 652 314 C652 277 621 255 539 255 C470 255 424 284 418 334 L57 335 Z M507 1538 L139 1331 L244 1138 L509 1276 L773 1138 L878 1331 L507 1538 Z " />
<glyph glyph-name="Scedilla" unicode="&#x15e;" horiz-adv-x="1337" d="M417 -241 L417 -242 C464 -242 538 -262 538 -322 C538 -369 501 -394 471 -394 C433 -394 403 -381 372 -362 L302 -542 C348 -586 421 -600 503 -600 C651 -600 789 -484 789 -316 C789 -219 736 -144 639 -106 L667 -36 C994 -35 1254 112 1254 391 C1254 679 1060 768 752 844 C611 874 497 909 497 983 C497 1033 528 1079 664 1079 C804 1079 833 1011 833 950 L1211 950 C1211 1224 1031 1395 699 1395 C307 1395 120 1237 120 945 C120 676 424 616 562 574 C763 509 872 506 872 392 C872 325 826 279 672 279 C517 279 443 333 443 433 L67 433 C67 237 179 29 499 -24 L416 -242 L417 -241 Z " />
<glyph glyph-name="scedilla" unicode="&#x15f;" horiz-adv-x="1099" d="M328 -241 L328 -242 C375 -242 449 -262 449 -322 C449 -369 412 -394 382 -394 C344 -394 314 -381 283 -362 L213 -542 C259 -586 332 -600 414 -600 C562 -600 700 -484 700 -316 C700 -219 647 -144 550 -106 L579 -35 C843 -21 1037 94 1037 339 C1037 569 858 623 625 666 C505 686 461 692 460 731 C459 762 494 788 552 788 C609 788 636 755 639 718 L1009 717 C1009 932 849 1078 579 1078 C258 1078 94 955 94 727 C94 482 286 433 395 408 C566 366 651 365 652 314 C652 277 621 255 539 255 C470 255 424 284 418 334 L57 335 C57 181 154 12 409 -28 L327 -242 L328 -241 Z " />
<glyph glyph-name="Scaron" unicode="&#x160;" horiz-adv-x="1337" d="M67 433 C67 207 216 -36 664 -36 C992 -36 1254 111 1254 391 C1254 679 1060 768 752 844 C611 874 497 909 497 983 C497 1033 528 1079 664 1079 C804 1079 833 1011 833 950 L1211 950 C1211 1224 1031 1395 699 1395 C307 1395 120 1237 120 945 C120 676 424 616 562 574 C763 509 872 506 872 392 C872 325 826 279 672 279 C517 279 443 333 443 433 L67 433 Z M1004 1739 L899 1930 L635 1792 L370 1930 L265 1739 L633 1530 L1004 1739 Z " />
<glyph glyph-name="scaron" unicode="&#x161;" horiz-adv-x="1099" d="M57 335 C57 160 183 -36 525 -36 C817 -36 1037 78 1037 339 C1037 569 858 623 625 666 C505 686 461 692 460 731 C459 762 494 788 552 788 C609 788 636 755 639 718 L1009 717 C1009 932 849 1078 579 1078 C258 1078 94 955 94 727 C94 482 286 433 395 408 C566 366 651 365 652 314 C652 277 621 255 539 255 C470 255 424 284 418 334 L57 335 Z M878 1342 L773 1533 L509 1395 L244 1533 L139 1342 L507 1133 L878 1342 Z " />
<glyph glyph-name="Tcommaaccent" unicode="&#x162;" horiz-adv-x="1176" d="M401 0 L776 0 L776 1046 L1134 1046 L1134 1360 L42 1360 L42 1046 L401 1046 L401 0 Z M445 -83 L320 -499 L582 -507 L766 -110 L445 -83 Z " />
<glyph glyph-name="tcommaaccent" unicode="&#x163;" horiz-adv-x="934" d="M190 1080 L41 1008 L41 738 L199 738 L199 412 C199 50 404 -4 648 -4 L851 -4 L854 287 L683 287 C614 287 565 313 565 416 L565 738 L842 738 L842 1043 L566 1043 L566 1327 L304 1325 L190 1080 Z M335 -90 L210 -506 L472 -514 L656 -117 L335 -90 Z " />
<glyph glyph-name="Tcaron" unicode="&#x164;" horiz-adv-x="1176" d="M401 0 L776 0 L776 1046 L1134 1046 L1134 1360 L42 1360 L42 1046 L401 1046 L401 0 Z M956 1739 L851 1930 L587 1792 L322 1930 L217 1739 L585 1530 L956 1739 Z " />
<glyph glyph-name="tcaron" unicode="&#x165;" horiz-adv-x="1225" d="M190 1080 L41 1008 L41 738 L199 738 L199 412 C199 50 404 -4 648 -4 L851 -4 L854 287 L683 287 C614 287 565 313 565 416 L565 738 L842 738 L842 1043 L566 1043 L566 1327 L304 1325 L190 1080 Z M1088 1497 L907 904 L1169 895 L1410 1470 L1088 1497 Z " />
<glyph glyph-name="Tbar" unicode="&#x166;" horiz-adv-x="1176" d="M401 545 L401 0 L776 0 L776 545 L906 545 L906 751 L776 751 L776 1046 L1134 1046 L1134 1360 L42 1360 L42 1046 L401 1046 L401 751 L272 751 L272 545 L401 545 Z " />
<glyph glyph-name="tbar" unicode="&#x167;" horiz-adv-x="934" d="M77 457 L192 457 L192 412 C192 50 398 -4 641 -4 L845 -4 L847 287 L677 287 C607 287 559 313 559 416 L559 457 L720 457 L720 629 L559 629 L559 738 L835 738 L835 1043 L559 1043 L559 1327 L297 1325 L183 1080 L34 1008 L34 738 L192 738 L192 629 L77 629 L77 457 Z " />
<glyph glyph-name="Utilde" unicode="&#x168;" horiz-adv-x="1454" d="M961 523 C961 380 878 278 726 278 C571 278 489 380 489 522 L489 1360 L113 1360 L113 524 C113 179 380 -33 726 -33 C1102 -33 1338 203 1338 524 L1338 1360 L961 1360 L961 523 Z M935 1817 C915 1763 883 1740 846 1740 C787 1740 731 1799 608 1803 C488 1803 397 1707 364 1597 L508 1496 C535 1554 562 1561 592 1561 C637 1561 718 1502 841 1502 C959 1502 1042 1591 1082 1714 L935 1817 Z " />
<glyph glyph-name="utilde" unicode="&#x169;" horiz-adv-x="1298" d="M648 272 C542 272 471 317 471 498 L471 1043 L102 1043 L102 486 C102 99 343 -35 648 -35 C954 -35 1195 99 1195 486 L1195 1043 L826 1043 L826 498 C826 317 754 272 648 272 L648 272 Z M887 1424 C867 1370 835 1347 798 1347 C739 1347 683 1406 560 1410 C440 1410 349 1314 316 1204 L460 1103 C487 1161 514 1168 544 1168 C589 1168 670 1109 793 1109 C911 1109 994 1198 1034 1321 L887 1424 Z " />
<glyph glyph-name="Umacron" unicode="&#x16a;" horiz-adv-x="1454" d="M961 523 C961 380 878 278 726 278 C571 278 489 380 489 522 L489 1360 L113 1360 L113 524 C113 179 380 -33 726 -33 C1102 -33 1338 203 1338 524 L1338 1360 L961 1360 L961 523 Z M408 1513 L1042 1513 L1042 1719 L408 1719 L408 1513 Z " />
<glyph glyph-name="umacron" unicode="&#x16b;" horiz-adv-x="1298" d="M648 272 C542 272 471 317 471 498 L471 1043 L102 1043 L102 486 C102 99 343 -35 648 -35 C954 -35 1195 99 1195 486 L1195 1043 L826 1043 L826 498 C826 317 754 272 648 272 L648 272 Z M358 1188 L992 1188 L992 1394 L358 1394 L358 1188 Z " />
<glyph glyph-name="Ubreve" unicode="&#x16c;" horiz-adv-x="1454" d="M961 523 C961 380 878 278 726 278 C571 278 489 380 489 522 L489 1360 L113 1360 L113 524 C113 179 380 -33 726 -33 C1102 -33 1338 203 1338 524 L1338 1360 L961 1360 L961 523 Z M831 1878 C807 1823 790 1792 722 1792 C654 1792 637 1823 611 1878 L365 1863 C376 1683 494 1548 722 1548 C949 1548 1067 1683 1079 1863 L831 1878 Z " />
<glyph glyph-name="ubreve" unicode="&#x16d;" horiz-adv-x="1298" d="M648 272 C542 272 471 317 471 498 L471 1043 L102 1043 L102 486 C102 99 343 -35 648 -35 C954 -35 1195 99 1195 486 L1195 1043 L826 1043 L826 498 C826 317 754 272 648 272 L648 272 Z M784 1481 C760 1426 743 1395 675 1395 C607 1395 590 1426 564 1481 L318 1466 C329 1286 447 1151 675 1151 C902 1151 1020 1286 1032 1466 L784 1481 Z " />
<glyph glyph-name="Uring" unicode="&#x16e;" horiz-adv-x="1454" d="M642 1643 C642 1684 675 1716 723 1716 C772 1716 804 1684 804 1643 C804 1604 771 1571 723 1571 C674 1571 642 1604 642 1643 L642 1643 Z M961 523 C961 380 878 278 726 278 C571 278 489 380 489 522 L489 1360 L113 1360 L113 524 C113 179 380 -33 726 -33 C1102 -33 1338 203 1338 524 L1338 1360 L961 1360 L961 523 Z M443 1644 C443 1513 551 1405 723 1405 C892 1405 1003 1513 1003 1644 C1003 1776 893 1883 723 1883 C553 1883 443 1776 443 1644 L443 1644 Z " />
<glyph glyph-name="uring" unicode="&#x16f;" horiz-adv-x="1298" d="M593 1310 C593 1351 626 1383 674 1383 C723 1383 755 1351 755 1310 C755 1271 722 1238 674 1238 C625 1238 593 1271 593 1310 L593 1310 Z M648 272 C542 272 471 317 471 498 L471 1043 L102 1043 L102 486 C102 99 343 -35 648 -35 C954 -35 1195 99 1195 486 L1195 1043 L826 1043 L826 498 C826 317 754 272 648 272 L648 272 Z M394 1311 C394 1180 502 1072 674 1072 C843 1072 954 1180 954 1311 C954 1443 844 1550 674 1550 C504 1550 394 1443 394 1311 L394 1311 Z " />
<glyph glyph-name="Uhungarumlaut" unicode="&#x170;" horiz-adv-x="1454" d="M961 523 C961 380 878 278 726 278 C571 278 489 380 489 522 L489 1360 L113 1360 L113 524 C113 179 380 -33 726 -33 C1102 -33 1338 203 1338 524 L1338 1360 L961 1360 L961 523 Z M533 1878 L424 1544 L641 1543 L811 1873 L533 1878 Z M913 1878 L803 1544 L1020 1543 L1191 1873 L913 1878 Z " />
<glyph glyph-name="uhungarumlaut" unicode="&#x171;" horiz-adv-x="1298" d="M648 272 C542 272 471 317 471 498 L471 1043 L102 1043 L102 486 C102 99 343 -35 648 -35 C954 -35 1195 99 1195 486 L1195 1043 L826 1043 L826 498 C826 317 754 272 648 272 L648 272 Z M470 1481 L361 1147 L578 1146 L748 1476 L470 1481 Z M850 1481 L740 1147 L957 1146 L1128 1476 L850 1481 Z " />
<glyph glyph-name="Uogonek" unicode="&#x172;" horiz-adv-x="1454" d="M666 -31 C616 -85 580 -149 580 -222 C580 -342 667 -418 829 -418 C947 -418 1050 -363 1110 -304 L1043 -150 C993 -182 965 -191 932 -191 C905 -191 892 -178 892 -153 C892 -81 1015 10 1094 64 C1249 163 1338 327 1338 524 L1338 1360 L961 1360 L961 523 C961 380 878 278 726 278 C571 278 489 380 489 522 L489 1360 L113 1360 L113 524 C113 199 350 -8 666 -31 L666 -31 Z " />
<glyph glyph-name="uogonek" unicode="&#x173;" horiz-adv-x="1298" d="M579 -33 C526 -89 487 -154 487 -230 C487 -350 574 -426 736 -426 C854 -426 957 -371 1017 -312 L950 -158 C900 -190 872 -199 839 -199 C812 -199 799 -186 799 -161 C799 -96 898 -16 976 39 C1110 115 1195 256 1195 486 L1195 1043 L826 1043 L826 498 C826 317 754 272 648 272 C542 272 471 317 471 498 L471 1043 L102 1043 L102 486 C102 129 308 -13 579 -33 L579 -33 Z " />
<glyph glyph-name="Wcircumflex" unicode="&#x174;" horiz-adv-x="2106" d="M1248 1358 L851 1358 L663 527 L658 527 L417 1361 L19 1361 L474 0 L835 0 L1050 718 L1264 0 L1625 0 L2080 1361 L1682 1361 L1442 527 L1438 527 L1248 1358 Z M1080 1935 L712 1728 L817 1535 L1082 1673 L1346 1535 L1451 1728 L1080 1935 Z " />
<glyph glyph-name="wcircumflex" unicode="&#x175;" horiz-adv-x="1759" d="M1336 1043 L1170 480 L1166 480 L1009 1040 L747 1040 L590 480 L587 480 L421 1043 L27 1043 L386 0 L713 0 L876 491 L1043 0 L1371 0 L1731 1043 L1336 1043 Z M853 1538 L485 1331 L590 1138 L855 1276 L1119 1138 L1224 1331 L853 1538 Z " />
<glyph glyph-name="Ycircumflex" unicode="&#x176;" horiz-adv-x="1434" d="M980 1360 L719 845 L716 845 L454 1360 L18 1360 L529 511 L529 0 L906 0 L905 513 L1419 1360 L980 1360 Z M717 1923 L349 1716 L454 1523 L719 1661 L983 1523 L1088 1716 L717 1923 Z " />
<glyph glyph-name="ycircumflex" unicode="&#x177;" horiz-adv-x="1250" d="M817 1041 L610 491 L589 564 L410 1042 L5 1042 L417 77 L209 -359 L606 -359 L1211 1043 L817 1041 Z M600 1538 L232 1331 L337 1138 L602 1276 L866 1138 L971 1331 L600 1538 Z " />
<glyph glyph-name="Ydieresis" unicode="&#x178;" horiz-adv-x="1434" d="M980 1360 L719 845 L716 845 L454 1360 L18 1360 L529 511 L529 0 L906 0 L905 513 L1419 1360 L980 1360 Z M357 1679 C357 1606 418 1547 514 1547 C609 1547 671 1606 671 1679 C671 1751 610 1810 514 1810 C419 1810 357 1751 357 1679 L357 1679 Z M765 1679 C765 1606 825 1547 921 1547 C1016 1547 1079 1606 1079 1679 C1079 1751 1017 1810 921 1810 C827 1810 765 1751 765 1679 L765 1679 Z " />
<glyph glyph-name="Zacute" unicode="&#x179;" horiz-adv-x="1294" d="M1215 0 L1215 314 L563 314 L1198 1090 L1199 1360 L108 1360 L108 1047 L700 1047 L67 276 L72 0 L1215 0 Z M773 1883 L576 1550 L832 1550 L1038 1790 L773 1883 Z " />
<glyph glyph-name="zacute" unicode="&#x17a;" horiz-adv-x="1144" d="M65 0 L1057 0 L1057 306 L593 306 L1032 821 L1032 1043 L92 1043 L92 738 L510 738 L65 218 L65 0 Z M535 1486 L338 1153 L594 1153 L800 1393 L535 1486 Z " />
<glyph glyph-name="Zdotaccent" unicode="&#x17b;" horiz-adv-x="1294" d="M1215 0 L1215 314 L563 314 L1198 1090 L1199 1360 L108 1360 L108 1047 L700 1047 L67 276 L72 0 L1215 0 Z M559 1690 C559 1618 620 1558 716 1558 C811 1558 874 1618 874 1690 C874 1763 812 1822 716 1822 C621 1822 559 1763 559 1690 L559 1690 Z " />
<glyph glyph-name="zdotaccent" unicode="&#x17c;" horiz-adv-x="1144" d="M65 0 L1057 0 L1057 306 L593 306 L1032 821 L1032 1043 L92 1043 L92 738 L510 738 L65 218 L65 0 Z M391 1293 C391 1221 452 1161 548 1161 C643 1161 706 1221 706 1293 C706 1366 644 1425 548 1425 C453 1425 391 1366 391 1293 L391 1293 Z " />
<glyph glyph-name="Zcaron" unicode="&#x17d;" horiz-adv-x="1294" d="M1215 0 L1215 314 L563 314 L1198 1090 L1199 1360 L108 1360 L108 1047 L700 1047 L67 276 L72 0 L1215 0 Z M1088 1739 L983 1930 L719 1792 L454 1930 L349 1739 L717 1530 L1088 1739 Z " />
<glyph glyph-name="zcaron" unicode="&#x17e;" horiz-adv-x="1144" d="M65 0 L1057 0 L1057 306 L593 306 L1032 821 L1032 1043 L92 1043 L92 738 L510 738 L65 218 L65 0 Z M914 1342 L809 1533 L545 1395 L280 1533 L175 1342 L543 1133 L914 1342 Z " />
<glyph glyph-name="longs" unicode="&#x17f;" horiz-adv-x="910" d="M218 0 L587 0 L587 1071 C587 1142 621 1209 713 1209 C777 1209 855 1184 855 1184 L855 1468 C822 1479 765 1498 621 1498 C311 1498 218 1269 218 1078 L218 1043 L36 1043 L36 738 L218 738 L218 0 Z " />
<glyph glyph-name="florin" unicode="&#x192;" horiz-adv-x="940" d="M117 -36 C106 -121 54 -150 -5 -150 C-27 -150 -69 -144 -87 -133 L-224 -391 C-203 -407 -175 -424 -139 -437 C-81 -457 -26 -467 26 -467 C273 -467 445 -255 472 -43 L562 669 L831 669 L867 963 L596 963 L606 1026 C615 1085 651 1139 713 1139 C767 1139 809 1120 809 1120 L946 1376 C883 1433 772 1447 691 1447 C679 1447 667 1447 654 1446 C378 1435 272 1188 248 1011 L242 963 L80 963 L46 669 L207 669 L117 -36 Z " />
<glyph glyph-name="AEacute" unicode="&#x1fc;" horiz-adv-x="2083" d="M1002 879 L1002 495 L767 495 L959 789 L1002 879 Z M1993 0 L1993 314 L1379 314 L1379 530 L1895 530 L1895 843 L1379 843 L1379 1046 L1983 1046 L1983 1360 L897 1360 L8 -1 L444 -1 L564 184 L1002 184 L1002 0 L1993 0 Z M1149 1470 L1405 1470 L1611 1710 L1346 1803 L1149 1470 Z " />
<glyph glyph-name="aeacute" unicode="&#x1fd;" horiz-adv-x="2212" d="M455 522 C455 675 553 771 683 771 C810 771 912 674 912 522 C912 366 812 270 685 270 C558 270 455 367 455 522 L455 522 Z M1546 795 C1640 795 1704 745 1738 670 L1340 670 C1377 746 1447 795 1546 795 L1546 795 Z M1262 29 C1343 -12 1438 -35 1544 -35 C1853 -35 2048 158 2103 342 L1706 342 C1680 295 1624 257 1546 257 C1452 257 1362 321 1326 423 L2123 423 C2128 450 2134 473 2134 521 C2134 826 1897 1078 1544 1078 C1438 1078 1343 1055 1262 1015 L1262 1043 L951 1043 L939 988 C868 1037 770 1078 648 1078 C297 1078 88 825 88 521 C88 216 299 -35 647 -35 C767 -35 867 6 939 56 L951 0 L1262 0 L1262 29 Z M886 1153 L1142 1153 L1348 1393 L1083 1486 L886 1153 Z " />
<glyph glyph-name="Oslashacute" unicode="&#x1fe;" horiz-adv-x="1673" d="M1210 681 C1210 453 1045 281 836 281 C811 281 788 283 765 288 L1177 848 C1198 798 1210 741 1210 681 L1210 681 Z M462 681 C462 910 629 1081 836 1081 C857 1081 878 1079 898 1076 L491 522 C472 570 462 624 462 681 L462 681 Z M86 682 C86 504 154 341 266 216 L142 47 L432 -165 L564 15 C648 -15 740 -33 836 -33 C1249 -33 1586 287 1586 682 C1586 862 1516 1027 1400 1152 L1522 1317 L1231 1529 L1099 1350 C1017 1379 928 1395 836 1395 C421 1395 86 1078 86 682 L86 682 Z M739 1550 L995 1550 L1201 1790 L936 1883 L739 1550 Z " />
<glyph glyph-name="oslashacute" unicode="&#x1ff;" horiz-adv-x="1352" d="M456 522 C456 675 552 771 676 771 C799 771 896 674 896 522 C896 367 801 271 677 271 C555 271 456 368 456 522 L456 522 Z M89 521 C89 383 137 257 221 159 L136 43 L386 -139 L483 -8 C541 -25 604 -35 672 -35 C1027 -35 1263 214 1263 521 C1263 661 1212 791 1124 889 L1196 987 L945 1170 L859 1053 C802 1069 740 1078 674 1078 C324 1078 89 825 89 521 L89 521 Z M516 1153 L772 1153 L978 1393 L713 1486 L516 1153 Z " />
<glyph glyph-name="Scommaaccent" unicode="&#x218;" horiz-adv-x="1337" d="M67 433 C67 207 216 -36 664 -36 C992 -36 1254 111 1254 391 C1254 679 1060 768 752 844 C611 874 497 909 497 983 C497 1033 528 1079 664 1079 C804 1079 833 1011 833 950 L1211 950 C1211 1224 1031 1395 699 1395 C307 1395 120 1237 120 945 C120 676 424 616 562 574 C763 509 872 506 872 392 C872 325 826 279 672 279 C517 279 443 333 443 433 L67 433 Z M446 -108 L321 -524 L583 -532 L767 -135 L446 -108 Z " />
<glyph glyph-name="scommaaccent" unicode="&#x219;" horiz-adv-x="1099" d="M57 335 C57 160 183 -36 525 -36 C817 -36 1037 78 1037 339 C1037 569 858 623 625 666 C505 686 461 692 460 731 C459 762 494 788 552 788 C609 788 636 755 639 718 L1009 717 C1009 932 849 1078 579 1078 C258 1078 94 955 94 727 C94 482 286 433 395 408 C566 366 651 365 652 314 C652 277 621 255 539 255 C470 255 424 284 418 334 L57 335 Z M358 -83 L233 -499 L495 -507 L679 -110 L358 -83 Z " />
<glyph glyph-name="uni021A" unicode="&#x21a;" horiz-adv-x="1175" d="M406 0 L781 0 L781 1046 L1139 1046 L1139 1360 L47 1360 L47 1046 L406 1046 L406 0 Z M439 -83 L314 -499 L576 -507 L760 -110 L439 -83 Z " />
<glyph glyph-name="uni021B" unicode="&#x21b;" horiz-adv-x="934" d="M199 963 L38 963 L38 669 L199 669 L199 380 C199 42 388 -34 615 -34 C725 -34 843 5 887 46 L777 300 C727 273 703 263 650 263 C591 263 551 298 551 385 L551 669 L800 669 L800 963 L552 963 L552 1254 L199 1252 L199 963 Z M338 -90 L213 -506 L475 -514 L659 -117 L338 -90 Z " />
<glyph glyph-name="dotlessj" unicode="&#x237;" horiz-adv-x="633" d="M132 1043 L132 31 C132 -56 93 -101 40 -101 L-75 -101 L-75 -403 L55 -403 C297 -403 502 -282 502 27 L502 1043 L132 1043 Z " />
<glyph glyph-name="circumflex" unicode="&#x2c6;" horiz-adv-x="774" d="M382 1538 L14 1331 L119 1138 L384 1276 L648 1138 L753 1331 L382 1538 Z " />
<glyph glyph-name="caron" unicode="&#x2c7;" horiz-adv-x="759" d="M753 1342 L648 1533 L384 1395 L119 1533 L14 1342 L382 1133 L753 1342 Z " />
<glyph glyph-name="uni02C9" unicode="&#x2c9;" horiz-adv-x="887" d="M80 1094 L769 1094 L769 1334 L80 1334 L80 1094 Z " />
<glyph glyph-name="breve" unicode="&#x2d8;" horiz-adv-x="804" d="M534 1481 C510 1426 493 1395 425 1395 C357 1395 340 1426 314 1481 L68 1466 C79 1286 197 1151 425 1151 C652 1151 770 1286 782 1466 L534 1481 Z " />
<glyph glyph-name="dotaccent" unicode="&#x2d9;" horiz-adv-x="529" d="M119 1293 C119 1221 180 1161 276 1161 C371 1161 434 1221 434 1293 C434 1366 372 1425 276 1425 C181 1425 119 1366 119 1293 L119 1293 Z " />
<glyph glyph-name="ring" unicode="&#x2da;" horiz-adv-x="548" d="M-4 1251 C-4 1120 104 1012 276 1012 C445 1012 556 1120 556 1251 C556 1383 446 1490 276 1490 C106 1490 -4 1383 -4 1251 L-4 1251 Z M195 1250 C195 1291 228 1323 276 1323 C325 1323 357 1291 357 1250 C357 1211 324 1178 276 1178 C227 1178 195 1211 195 1250 L195 1250 Z " />
<glyph glyph-name="ogonek" unicode="&#x2db;" horiz-adv-x="454" d="M188 154 C64 74 -124 -41 -124 -209 C-124 -329 -37 -405 125 -405 C243 -405 346 -350 406 -291 L339 -137 C289 -169 261 -178 228 -178 C201 -178 188 -165 188 -140 C188 -60 341 44 416 95 L188 154 Z " />
<glyph glyph-name="tilde" unicode="&#x2dc;" horiz-adv-x="843" d="M647 1424 C627 1370 595 1347 558 1347 C499 1347 443 1406 320 1410 C200 1410 109 1314 76 1204 L220 1103 C247 1161 274 1168 304 1168 C349 1168 430 1109 553 1109 C671 1109 754 1198 794 1321 L647 1424 Z " />
<glyph glyph-name="hungarumlaut" unicode="&#x2dd;" horiz-adv-x="818" d="M316 1481 L207 1147 L424 1146 L594 1476 L316 1481 Z M696 1481 L586 1147 L803 1146 L974 1476 L696 1481 Z " />
<glyph glyph-name="tonos" unicode="&#x384;" horiz-adv-x="580" d="M462 1333 L124 1333 L152 969 L430 968 L462 1333 Z " />
<glyph glyph-name="dieresistonos" unicode="&#x385;" horiz-adv-x="1133" d="M54 1242 C54 1169 114 1110 210 1110 C306 1110 368 1169 368 1242 C368 1315 307 1374 210 1374 C116 1374 54 1315 54 1242 L54 1242 Z M607 1250 C607 1177 667 1118 763 1118 C858 1118 921 1177 921 1250 C921 1322 859 1381 763 1381 C669 1381 607 1322 607 1250 L607 1250 Z M654 1781 L316 1781 L344 1369 L623 1369 L654 1781 Z " />
<glyph glyph-name="Alphatonos" unicode="&#x386;" horiz-adv-x="1500" d="M746 873 L750 873 L760 823 L886 495 L609 495 L735 823 L746 873 Z M1474 0 L924 1361 L572 1361 L22 0 L420 0 L490 184 L1005 184 L1076 0 L1474 0 Z M17 1357 L45 993 L323 992 L355 1357 L17 1357 Z " />
<glyph glyph-name="Epsilontonos" unicode="&#x388;" horiz-adv-x="1418" d="M341 0 L1332 0 L1332 314 L718 314 L718 516 L1234 516 L1234 829 L718 829 L718 1046 L1323 1046 L1323 1360 L341 1360 L341 0 Z M230 1356 L-108 1356 L-80 992 L198 991 L230 1356 Z " />
<glyph glyph-name="Etatonos" unicode="&#x389;" horiz-adv-x="1852" d="M458 0 L835 0 L835 516 L1346 516 L1346 0 L1724 0 L1724 1360 L1346 1360 L1346 829 L835 829 L835 1360 L458 1360 L458 0 Z M366 1365 L28 1365 L56 1001 L334 1000 L366 1365 Z " />
<glyph glyph-name="Iotatonos" unicode="&#x38a;" horiz-adv-x="898" d="M394 0 L771 0 L771 1360 L394 1360 L394 0 Z M323 1347 L-15 1347 L13 983 L291 982 L323 1347 Z " />
<glyph glyph-name="Omicrontonos" unicode="&#x38c;" horiz-adv-x="1949" d="M362 682 C362 287 697 -33 1112 -33 C1525 -33 1862 287 1862 682 C1862 1078 1525 1395 1112 1395 C697 1395 362 1078 362 682 L362 682 Z M738 681 C738 910 905 1081 1112 1081 C1321 1081 1486 910 1486 681 C1486 453 1321 281 1112 281 C905 281 738 453 738 681 L738 681 Z M345 1344 L7 1344 L35 980 L313 979 L345 1344 Z " />
<glyph glyph-name="Upsilontonos" unicode="&#x38e;" horiz-adv-x="1777" d="M1322 1360 L1061 845 L1058 845 L796 1360 L360 1360 L871 511 L871 0 L1248 0 L1247 513 L1761 1360 L1322 1360 Z M324 1364 L-14 1364 L14 1000 L292 999 L324 1364 Z " />
<glyph glyph-name="Omegatonos" unicode="&#x38f;" horiz-adv-x="1868" d="M340 0 L964 0 L964 184 C964 508 704 541 704 769 C704 988 836 1082 1043 1082 C1250 1082 1382 988 1382 769 C1382 541 1122 508 1122 184 L1122 0 L1746 0 L1746 314 L1431 249 C1523 442 1759 464 1759 770 C1759 1177 1457 1397 1043 1397 C629 1397 327 1177 327 770 C327 464 562 442 654 249 L340 314 L340 0 Z M283 1293 L-55 1293 L-27 929 L251 928 L283 1293 Z " />
<glyph glyph-name="iotadieresistonos" unicode="&#x390;" horiz-adv-x="632" d="M132 0 L501 0 L501 1043 L132 1043 L132 0 Z M-131 1270 C-131 1197 -71 1138 25 1138 C121 1138 183 1197 183 1270 C183 1343 122 1402 25 1402 C-69 1402 -131 1343 -131 1270 L-131 1270 Z M422 1278 C422 1205 482 1146 578 1146 C673 1146 736 1205 736 1278 C736 1350 674 1409 578 1409 C484 1409 422 1350 422 1278 L422 1278 Z M469 1809 L131 1809 L159 1397 L438 1397 L469 1809 Z " />
<glyph glyph-name="Alpha" unicode="&#x391;" horiz-adv-x="1500" d="M746 873 L750 873 L760 823 L886 495 L609 495 L735 823 L746 873 Z M1474 0 L924 1361 L572 1361 L22 0 L420 0 L490 184 L1005 184 L1076 0 L1474 0 Z " />
<glyph glyph-name="Beta" unicode="&#x392;" horiz-adv-x="1340" d="M504 556 L760 556 C830 556 889 510 889 430 C889 334 805 300 761 300 L504 300 L504 556 Z M721 1059 C768 1059 821 1012 821 944 C821 873 766 831 720 831 L504 831 L504 1059 L721 1059 Z M800 0 C1030 0 1278 105 1278 414 C1278 557 1169 674 1046 722 C1127 754 1204 864 1204 973 C1204 1225 1027 1360 743 1360 L127 1360 L127 0 L800 0 Z " />
<glyph glyph-name="Gamma" unicode="&#x393;" horiz-adv-x="1151" d="M127 0 L505 0 L505 1046 L1109 1046 L1109 1360 L127 1360 L127 0 Z " />
<glyph glyph-name="Delta" unicode="&#x394;" horiz-adv-x="1500" d="M1379 0 L1379 232 L924 1361 L570 1361 L116 232 L116 0 L1379 0 Z M719 774 L746 865 L748 865 L775 774 L959 301 L535 301 L719 774 Z " />
<glyph glyph-name="Epsilon" unicode="&#x395;" horiz-adv-x="1204" d="M127 0 L1118 0 L1118 314 L504 314 L504 516 L1020 516 L1020 829 L504 829 L504 1046 L1109 1046 L1109 1360 L127 1360 L127 0 Z " />
<glyph glyph-name="Zeta" unicode="&#x396;" horiz-adv-x="1294" d="M1215 0 L1215 314 L563 314 L1198 1090 L1199 1360 L108 1360 L108 1047 L700 1047 L67 276 L72 0 L1215 0 Z " />
<glyph glyph-name="Eta" unicode="&#x397;" horiz-adv-x="1520" d="M127 0 L504 0 L504 516 L1015 516 L1015 0 L1393 0 L1393 1360 L1015 1360 L1015 829 L504 829 L504 1360 L127 1360 L127 0 Z " />
<glyph glyph-name="Theta" unicode="&#x398;" horiz-adv-x="1673" d="M86 682 C86 287 421 -33 836 -33 C1249 -33 1586 287 1586 682 C1586 1078 1249 1395 836 1395 C421 1395 86 1078 86 682 L86 682 Z M462 681 C462 910 629 1081 836 1081 C1045 1081 1210 910 1210 681 C1210 453 1045 281 836 281 C629 281 462 453 462 681 L462 681 Z M579 837 L579 539 L1082 539 L1082 837 L579 837 Z " />
<glyph glyph-name="Iota" unicode="&#x399;" horiz-adv-x="632" d="M127 0 L504 0 L504 1360 L127 1360 L127 0 Z " />
<glyph glyph-name="Kappa" unicode="&#x39a;" horiz-adv-x="1428" d="M504 1360 L127 1360 L127 0 L504 0 L504 255 L677 483 L965 0 L1409 0 L923 753 L1393 1360 L956 1360 L504 752 L504 1360 Z " />
<glyph glyph-name="Lambda" unicode="&#x39b;" horiz-adv-x="1500" d="M1076 0 L1474 0 L924 1361 L572 1361 L22 0 L420 0 L720 774 L747 865 L748 865 L776 774 L1076 0 Z " />
<glyph glyph-name="Mu" unicode="&#x39c;" horiz-adv-x="1687" d="M888 331 L1185 761 L1185 0 L1561 0 L1561 1360 L1233 1360 L842 819 L459 1360 L127 1360 L127 0 L504 0 L504 765 L796 331 L888 331 Z " />
<glyph glyph-name="Nu" unicode="&#x39d;" horiz-adv-x="1528" d="M1401 1360 L1025 1360 L1025 631 L458 1360 L127 1360 L127 0 L504 0 L504 732 L1074 0 L1401 0 L1401 1360 Z " />
<glyph glyph-name="Xi" unicode="&#x39e;" horiz-adv-x="1217" d="M112 0 L1103 0 L1103 314 L112 314 L112 0 Z M1094 1046 L1094 1360 L122 1360 L122 1046 L1094 1046 Z M1005 530 L1005 843 L203 843 L203 530 L1005 530 Z " />
<glyph glyph-name="Omicron" unicode="&#x39f;" horiz-adv-x="1673" d="M86 682 C86 287 421 -33 836 -33 C1249 -33 1586 287 1586 682 C1586 1078 1249 1395 836 1395 C421 1395 86 1078 86 682 L86 682 Z M462 681 C462 910 629 1081 836 1081 C1045 1081 1210 910 1210 681 C1210 453 1045 281 836 281 C629 281 462 453 462 681 L462 681 Z " />
<glyph glyph-name="Pi" unicode="&#x3a0;" horiz-adv-x="1520" d="M1019 0 L1394 0 L1394 1360 L127 1360 L127 0 L505 0 L505 1046 L1019 1046 L1019 0 Z " />
<glyph glyph-name="Rho" unicode="&#x3a1;" horiz-adv-x="1305" d="M504 711 L504 1046 L712 1046 C792 1046 858 967 858 877 C858 784 791 711 711 711 L504 711 Z M733 397 C1025 397 1235 593 1235 877 C1235 1157 1023 1360 728 1360 L127 1360 L127 0 L504 0 L504 397 L733 397 Z " />
<glyph glyph-name="Sigma" unicode="&#x3a3;" horiz-adv-x="1323" d="M910 682 L663 1047 L1189 1047 L1189 1361 L6 1361 L463 682 L6 0 L1189 0 L1189 314 L663 314 L910 682 Z " />
<glyph glyph-name="Tau" unicode="&#x3a4;" horiz-adv-x="1176" d="M401 0 L776 0 L776 1046 L1134 1046 L1134 1360 L42 1360 L42 1046 L401 1046 L401 0 Z " />
<glyph glyph-name="Upsilon" unicode="&#x3a5;" horiz-adv-x="1434" d="M980 1360 L719 845 L716 845 L454 1360 L18 1360 L529 511 L529 0 L906 0 L905 513 L1419 1360 L980 1360 Z " />
<glyph glyph-name="Phi" unicode="&#x3a6;" horiz-adv-x="1730" d="M453 681 C453 838 550 907 679 935 L679 427 C550 455 453 524 453 681 L453 681 Z M1278 681 C1278 524 1182 455 1054 427 L1054 935 C1182 907 1278 838 1278 681 L1278 681 Z M1054 107 C1419 153 1656 342 1656 682 C1656 1022 1419 1209 1054 1255 L1054 1360 L679 1360 L679 1256 C311 1210 75 1023 75 682 C75 341 310 152 679 107 L679 0 L1054 0 L1054 107 Z " />
<glyph glyph-name="Chi" unicode="&#x3a7;" horiz-adv-x="1495" d="M521 1360 L80 1360 L512 717 L24 0 L467 0 L747 439 L1028 0 L1471 0 L983 717 L1414 1360 L973 1360 L747 999 L521 1360 Z " />
<glyph glyph-name="Psi" unicode="&#x3a8;" horiz-adv-x="1604" d="M609 0 L986 0 L986 262 C1306 283 1548 504 1548 832 L1548 1360 L1172 1360 L1172 832 C1172 706 1109 599 986 576 L986 1360 L609 1360 L609 579 C495 606 432 711 432 833 L432 1360 L56 1360 L56 832 C56 533 267 287 609 262 L609 0 Z " />
<glyph glyph-name="&amp;#x3a9;" unicode="&#x3a9;" horiz-adv-x="1651" d="M122 0 L746 0 L746 184 C746 508 486 541 486 769 C486 988 618 1082 825 1082 C1032 1082 1164 988 1164 769 C1164 541 904 508 904 184 L904 0 L1528 0 L1528 314 L1213 249 C1305 442 1541 464 1541 770 C1541 1177 1239 1397 825 1397 C411 1397 109 1177 109 770 C109 464 344 442 436 249 L122 314 L122 0 Z " />
<glyph glyph-name="&amp;#x2126;" unicode="&#x2126;" horiz-adv-x="1651" d="M122 0 L746 0 L746 184 C746 508 486 541 486 769 C486 988 618 1082 825 1082 C1032 1082 1164 988 1164 769 C1164 541 904 508 904 184 L904 0 L1528 0 L1528 314 L1213 249 C1305 442 1541 464 1541 770 C1541 1177 1239 1397 825 1397 C411 1397 109 1177 109 770 C109 464 344 442 436 249 L122 314 L122 0 Z " />
<glyph glyph-name="Iotadieresis" unicode="&#x3aa;" horiz-adv-x="632" d="M-32 1691 C-32 1618 29 1559 125 1559 C220 1559 282 1618 282 1691 C282 1763 221 1822 125 1822 C30 1822 -32 1763 -32 1691 L-32 1691 Z M376 1691 C376 1618 436 1559 532 1559 C627 1559 690 1618 690 1691 C690 1763 628 1822 532 1822 C438 1822 376 1763 376 1691 L376 1691 Z M127 0 L504 0 L504 1360 L127 1360 L127 0 Z " />
<glyph glyph-name="Upsilondieresis" unicode="&#x3ab;" horiz-adv-x="1434" d="M980 1360 L719 845 L716 845 L454 1360 L18 1360 L529 511 L529 0 L906 0 L905 513 L1419 1360 L980 1360 Z M359 1681 C359 1608 420 1549 516 1549 C611 1549 673 1608 673 1681 C673 1753 612 1812 516 1812 C421 1812 359 1753 359 1681 L359 1681 Z M767 1681 C767 1608 827 1549 923 1549 C1018 1549 1081 1608 1081 1681 C1081 1753 1019 1812 923 1812 C829 1812 767 1753 767 1681 L767 1681 Z " />
<glyph glyph-name="alphatonos" unicode="&#x3ac;" horiz-adv-x="1395" d="M455 522 C455 675 542 771 675 771 C806 771 867 679 894 522 C864 379 808 271 675 271 C544 271 455 368 455 522 L455 522 Z M1329 0 L1263 528 L1329 1042 L974 1042 L946 942 C859 1027 751 1079 631 1079 C282 1079 88 825 88 521 C88 216 284 -36 630 -36 C752 -36 861 14 947 99 L974 0 L1329 0 Z M497 1574 L525 1210 L803 1209 L835 1574 L497 1574 Z " />
<glyph glyph-name="epsilontonos" unicode="&#x3ad;" horiz-adv-x="1131" d="M887 694 L638 694 C559 694 507 708 507 739 C507 768 553 785 632 785 C726 785 917 766 937 761 L1008 1014 C922 1058 734 1084 632 1084 C364 1084 139 1008 139 755 C139 634 221 574 295 551 C209 529 89 512 89 320 C89 67 334 -38 634 -38 C770 -38 970 -6 1073 59 L995 313 C938 288 814 269 641 269 C543 269 457 284 457 324 C457 363 549 373 647 373 L891 373 L887 694 Z M785 1590 L447 1590 L475 1226 L753 1225 L785 1590 Z " />
<glyph glyph-name="etatonos" unicode="&#x3ae;" horiz-adv-x="1342" d="M1235 557 C1235 874 1100 1078 763 1078 C649 1078 530 1033 444 981 L425 1043 L132 1043 L132 0 L498 0 L498 514 C498 660 571 771 709 771 C795 771 867 722 867 549 L867 -343 L1235 -343 L1235 557 Z M862 1592 L524 1592 L552 1228 L830 1227 L862 1592 Z " />
<glyph glyph-name="iotatonos" unicode="&#x3af;" horiz-adv-x="632" d="M132 1 L501 1 L501 1044 L132 1044 L132 1 Z M467 1489 L129 1489 L157 1125 L435 1124 L467 1489 Z " />
<glyph glyph-name="upsilondieresistonos" unicode="&#x3b0;" horiz-adv-x="1350" d="M229 1256 C229 1183 289 1124 385 1124 C481 1124 543 1183 543 1256 C543 1329 482 1388 385 1388 C291 1388 229 1329 229 1256 L229 1256 Z M782 1264 C782 1191 842 1132 938 1132 C1033 1132 1096 1191 1096 1264 C1096 1336 1034 1395 938 1395 C844 1395 782 1336 782 1264 L782 1264 Z M829 1795 L491 1795 L519 1383 L798 1383 L829 1795 Z M648 272 C542 272 471 317 471 498 L471 1043 L102 1043 L102 486 C102 99 343 -35 648 -35 C954 -35 1195 99 1195 486 L1195 1043 L826 1043 L826 498 C826 317 754 272 648 272 L648 272 Z " />
<glyph glyph-name="alpha" unicode="&#x3b1;" horiz-adv-x="1413" d="M455 522 C455 675 542 771 675 771 C806 771 867 679 894 522 C864 379 808 271 675 271 C544 271 455 368 455 522 L455 522 Z M1263 528 L1329 1042 L974 1042 L946 942 C859 1027 751 1079 631 1079 C282 1079 88 825 88 521 C88 216 284 -36 630 -36 C752 -36 861 14 947 99 L974 0 L1329 0 L1263 528 Z " />
<glyph glyph-name="beta" unicode="&#x3b2;" horiz-adv-x="1342" d="M521 1004 C521 1110 581 1148 655 1148 C727 1148 794 1100 794 1012 C794 924 724 875 655 872 L648 872 L598 871 L598 598 L683 598 C803 598 896 545 896 430 C896 327 816 273 724 273 C660 273 585 288 525 305 L521 1004 Z M527 -1 C592 -19 674 -35 748 -35 C1064 -35 1264 163 1264 439 C1264 632 1159 724 1021 762 C1104 815 1161 897 1161 1011 C1161 1259 954 1457 654 1457 C354 1457 147 1285 147 1004 L147 -356 L529 -356 L527 -1 Z " />
<glyph glyph-name="gamma" unicode="&#x3b3;" horiz-adv-x="1235" d="M819 1043 L644 568 L621 503 L613 503 L590 568 L416 1043 L21 1043 L434 67 L434 -366 L801 -366 L801 69 L1214 1043 L819 1043 Z " />
<glyph glyph-name="delta" unicode="&#x3b4;" horiz-adv-x="1352" d="M456 522 C456 675 552 771 676 771 C799 771 896 674 896 522 C896 367 801 271 676 271 C554 271 456 368 456 522 L456 522 Z M528 1063 C260 1003 89 780 89 521 C89 216 325 -36 672 -36 C1027 -36 1263 214 1263 521 C1263 694 1187 850 1057 953 L825 1155 L1173 1130 L1173 1441 L499 1440 L498 1441 L264 1440 L265 1249 L528 1063 Z " />
<glyph glyph-name="epsilon" unicode="&#x3b5;" horiz-adv-x="1131" d="M887 694 L638 694 C559 694 507 708 507 739 C507 768 553 785 632 785 C726 785 917 766 937 761 L1008 1014 C922 1058 734 1084 632 1084 C364 1084 139 1008 139 755 C139 634 221 574 295 551 C209 529 89 512 89 320 C89 67 334 -38 634 -38 C770 -38 970 -6 1073 59 L995 313 C938 288 814 269 641 269 C543 269 457 284 457 324 C457 363 549 373 647 373 L891 373 L887 694 Z " />
<glyph glyph-name="zeta" unicode="&#x3b6;" horiz-adv-x="1132" d="M993 -389 C1079 -324 1122 -239 1122 -103 C1122 108 951 259 681 261 C533 262 441 301 441 421 C441 487 488 575 509 603 L1131 1477 L1148 1508 L138 1508 L138 1202 L531 1202 L243 835 C147 706 59 599 59 430 C59 98 331 -38 605 -38 C748 -38 813 -75 813 -143 C813 -204 801 -221 778 -254 L993 -389 Z " />
<glyph glyph-name="eta" unicode="&#x3b7;" horiz-adv-x="1342" d="M1235 557 C1235 874 1100 1078 763 1078 C649 1078 530 1033 444 981 L425 1043 L132 1043 L132 0 L498 0 L498 514 C498 660 571 771 709 771 C795 771 867 722 867 549 L867 -343 L1235 -343 L1235 557 Z " />
<glyph glyph-name="theta" unicode="&#x3b8;" horiz-adv-x="1337" d="M673 269 C524 269 458 426 437 611 L907 611 C884 425 814 269 673 269 L673 269 Z M672 1256 C816 1256 884 1094 907 916 L439 916 C461 1097 528 1256 672 1256 L672 1256 Z M673 -38 C1105 -38 1285 321 1285 764 C1285 1186 1136 1565 673 1565 C255 1565 61 1212 61 757 C61 322 235 -38 673 -38 L673 -38 Z " />
<glyph glyph-name="iota" unicode="&#x3b9;" horiz-adv-x="632" d="M132 0 L501 0 L501 1043 L132 1043 L132 0 Z " />
<glyph glyph-name="kappa" unicode="&#x3ba;" horiz-adv-x="1265" d="M132 0 L498 0 L498 240 L601 374 L799 0 L1234 0 L865 607 L1202 1043 L773 1043 L498 661 L498 1043 L132 1043 L132 0 Z " />
<glyph glyph-name="lambda" unicode="&#x3bb;" horiz-adv-x="1253" d="M1247 -1 L636 1412 L240 1412 L453 964 L41 0 L446 0 L625 478 L646 551 L853 0 L1247 -1 Z " />
<glyph glyph-name="uni03BC" unicode="&#x3bc;" horiz-adv-x="1380" d="M516 1043 L146 1043 L146 -343 L519 -343 L498 80 C551 15 642 -36 780 -36 C1117 -36 1252 197 1252 508 L1252 1043 L883 1043 L883 492 C883 316 812 271 706 271 C587 271 516 383 516 514 L516 1043 Z " />
<glyph glyph-name="nu" unicode="&#x3bd;" horiz-adv-x="1249" d="M816 1043 L615 480 L612 480 L412 1043 L19 1043 L451 0 L778 0 L1211 1043 L816 1043 Z " />
<glyph glyph-name="xi" unicode="&#x3be;" horiz-adv-x="1075" d="M90 1108 L217 1137 C183 1103 162 1061 162 998 C162 880 222 796 310 743 C175 701 73 604 73 413 C73 104 298 -38 613 -38 L615 -38 C719 -38 806 -78 806 -142 C806 -194 797 -222 767 -252 L987 -389 C1064 -311 1115 -241 1115 -113 C1115 174 878 268 618 269 L614 269 C522 269 441 312 441 415 C441 530 535 568 654 568 L889 568 L889 875 L658 876 C592 880 530 910 530 992 C530 1066 576 1099 634 1108 L942 1110 L942 1417 L90 1417 L90 1108 Z " />
<glyph glyph-name="omicron" unicode="&#x3bf;" horiz-adv-x="1352" d="M89 521 C89 216 325 -35 672 -35 C1027 -35 1263 214 1263 521 C1263 826 1027 1078 674 1078 C324 1078 89 825 89 521 L89 521 Z M456 522 C456 675 552 771 676 771 C799 771 896 674 896 522 C896 367 801 271 677 271 C555 271 456 368 456 522 L456 522 Z " />
<glyph glyph-name="pi" unicode="&#x3c0;" horiz-adv-x="1367" d="M132 0 L501 0 L501 737 L849 737 L849 0 L1217 0 L1217 1043 L132 1043 L132 0 Z " />
<glyph glyph-name="rho" unicode="&#x3c1;" horiz-adv-x="1395" d="M941 522 C941 368 845 271 721 271 C598 271 500 368 500 522 C500 676 596 771 720 771 C842 771 941 674 941 522 L941 522 Z M1308 523 C1308 827 1071 1079 724 1079 C335 1079 131 817 131 515 L131 -345 L505 -345 L485 71 C556 3 646 -37 747 -37 C1098 -37 1308 219 1308 523 L1308 523 Z " />
<glyph glyph-name="uni03C2" unicode="&#x3c2;" horiz-adv-x="1355" d="M1043 -388 C1079 -347 1173 -260 1173 -107 C1173 165 903 273 680 273 C559 273 460 365 460 522 C460 679 559 771 680 771 C767 771 842 722 878 638 L1252 639 C1200 888 986 1079 678 1079 C328 1079 92 824 93 521 C93 218 328 -35 678 -35 C764 -35 859 -60 859 -136 C859 -198 845 -222 823 -250 L1043 -388 Z " />
<glyph glyph-name="sigma" unicode="&#x3c3;" horiz-adv-x="1321" d="M459 526 C459 679 555 775 679 775 C803 775 900 677 900 526 C900 370 804 275 680 275 C558 275 459 372 459 526 L459 526 Z M92 525 C92 220 329 -31 676 -31 C1031 -31 1267 217 1267 525 C1267 605 1250 681 1220 750 L1268 742 L1268 1034 C1268 1034 1078 1037 914 1039 C843 1067 764 1082 677 1082 C327 1082 92 829 92 525 L92 525 Z " />
<glyph glyph-name="tau" unicode="&#x3c4;" horiz-adv-x="1061" d="M348 0 L713 0 L713 740 L976 740 L976 1043 L84 1043 L84 740 L348 740 L348 0 Z " />
<glyph glyph-name="upsilon" unicode="&#x3c5;" horiz-adv-x="1350" d="M648 272 C542 272 471 317 471 498 L471 1043 L102 1043 L102 486 C102 99 343 -35 648 -35 C954 -35 1195 99 1195 486 L1195 1043 L826 1043 L826 498 C826 317 754 272 648 272 L648 272 Z " />
<glyph glyph-name="phi" unicode="&#x3c6;" horiz-adv-x="1664" d="M649 1080 C303 1075 74 822 74 521 C74 218 305 -34 649 -38 L649 -452 L1019 -452 L1019 -37 C1364 -29 1592 219 1592 521 C1592 821 1362 1072 1019 1079 L1019 1507 L649 1507 L649 1080 Z M440 522 C440 670 531 767 649 773 L649 269 C533 275 440 372 440 522 L440 522 Z M1226 522 C1226 372 1136 275 1019 269 L1019 772 C1135 765 1226 668 1226 522 L1226 522 Z " />
<glyph glyph-name="chi" unicode="&#x3c7;" horiz-adv-x="1218" d="M44 1042 L354 391 L19 -350 L421 -350 L603 85 L784 -350 L1195 -350 L858 392 L1167 1042 L762 1042 L606 687 L452 1042 L44 1042 Z " />
<glyph glyph-name="psi" unicode="&#x3c8;" horiz-adv-x="1681" d="M657 -344 L1027 -344 L1027 -38 C1381 -33 1566 180 1566 487 L1566 1042 L1197 1042 L1197 503 C1197 333 1126 274 1027 270 L1027 1042 L657 1042 L657 270 C557 273 485 332 485 503 L485 1042 L116 1042 L116 487 C116 180 302 -34 657 -38 L657 -344 Z " />
<glyph glyph-name="omega" unicode="&#x3c9;" horiz-adv-x="2049" d="M1381 270 C1282 270 1209 323 1209 491 L1209 1041 L840 1041 L840 491 C840 323 766 270 667 270 C568 270 495 323 495 491 L495 1041 L127 1041 L127 476 C127 173 313 -38 667 -38 C855 -38 960 22 1024 123 C1088 22 1193 -38 1381 -38 C1736 -38 1922 173 1922 476 L1922 1041 L1553 1041 L1553 491 C1553 323 1479 270 1381 270 L1381 270 Z " />
<glyph glyph-name="iotadieresis" unicode="&#x3ca;" horiz-adv-x="632" d="M-58 1355 C-58 1282 3 1223 99 1223 C194 1223 256 1282 256 1355 C256 1427 195 1486 99 1486 C4 1486 -58 1427 -58 1355 L-58 1355 Z M350 1355 C350 1282 410 1223 506 1223 C601 1223 664 1282 664 1355 C664 1427 602 1486 506 1486 C412 1486 350 1427 350 1355 L350 1355 Z M132 1 L501 1 L501 1044 L132 1044 L132 1 Z " />
<glyph glyph-name="upsilondieresis" unicode="&#x3cb;" horiz-adv-x="1350" d="M314 1355 C314 1282 375 1223 471 1223 C566 1223 628 1282 628 1355 C628 1427 567 1486 471 1486 C376 1486 314 1427 314 1355 L314 1355 Z M722 1355 C722 1282 782 1223 878 1223 C973 1223 1036 1282 1036 1355 C1036 1427 974 1486 878 1486 C784 1486 722 1427 722 1355 L722 1355 Z M648 272 C542 272 471 317 471 498 L471 1043 L102 1043 L102 486 C102 99 343 -35 648 -35 C954 -35 1195 99 1195 486 L1195 1043 L826 1043 L826 498 C826 317 754 272 648 272 L648 272 Z " />
<glyph glyph-name="omicrontonos" unicode="&#x3cc;" horiz-adv-x="1352" d="M89 521 C89 216 325 -35 672 -35 C1027 -35 1263 214 1263 521 C1263 826 1027 1078 674 1078 C324 1078 89 825 89 521 L89 521 Z M456 522 C456 675 552 771 676 771 C799 771 896 674 896 522 C896 367 801 271 677 271 C555 271 456 368 456 522 L456 522 Z M852 1508 L514 1508 L542 1144 L820 1143 L852 1508 Z " />
<glyph glyph-name="upsilontonos" unicode="&#x3cd;" horiz-adv-x="1350" d="M839 1522 L501 1522 L529 1158 L807 1157 L839 1522 Z M648 272 C542 272 471 317 471 498 L471 1043 L102 1043 L102 486 C102 99 343 -35 648 -35 C954 -35 1195 99 1195 486 L1195 1043 L826 1043 L826 498 C826 317 754 272 648 272 L648 272 Z " />
<glyph glyph-name="omegatonos" unicode="&#x3ce;" horiz-adv-x="2049" d="M1381 270 C1282 270 1209 323 1209 491 L1209 1041 L840 1041 L840 491 C840 323 766 270 667 270 C568 270 495 323 495 491 L495 1041 L127 1041 L127 476 C127 173 313 -38 667 -38 C855 -38 960 22 1024 123 C1088 22 1193 -38 1381 -38 C1736 -38 1922 173 1922 476 L1922 1041 L1553 1041 L1553 491 C1553 323 1479 270 1381 270 L1381 270 Z M1185 1474 L847 1474 L875 1110 L1153 1109 L1185 1474 Z " />
<glyph glyph-name="uni03F0" unicode="&#x3f0;" horiz-adv-x="1233" d="M49 1043 L366 548 L25 0 L450 0 L614 296 L774 0 L1210 0 L868 548 L1183 1043 L754 1043 L617 786 L482 1043 L49 1043 Z " />
<glyph glyph-name="afii10023" unicode="&#x401;" horiz-adv-x="1204" d="M248 1688 C248 1615 309 1556 405 1556 C500 1556 562 1615 562 1688 C562 1760 501 1819 405 1819 C310 1819 248 1760 248 1688 L248 1688 Z M656 1688 C656 1615 716 1556 812 1556 C907 1556 970 1615 970 1688 C970 1760 908 1819 812 1819 C718 1819 656 1760 656 1688 L656 1688 Z M127 0 L1118 0 L1118 314 L504 314 L504 516 L1020 516 L1020 829 L504 829 L504 1046 L1109 1046 L1109 1360 L127 1360 L127 0 Z " />
<glyph glyph-name="afii10051" unicode="&#x402;" horiz-adv-x="1568" d="M1090 415 L1090 11 C1090 -58 1064 -89 1020 -89 C972 -89 966 -70 949 -58 L791 -268 C813 -286 896 -395 1074 -395 C1275 -395 1467 -299 1467 -8 L1467 415 C1467 702 1326 921 1014 921 C902 921 824 885 776 836 L776 1046 L1153 1046 L1153 1360 L23 1360 L23 1046 L401 1046 L401 0 L776 0 L776 301 L777 302 L777 395 C777 510 838 609 942 609 C1033 609 1090 572 1090 415 L1090 415 Z " />
<glyph glyph-name="afii10052" unicode="&#x403;" horiz-adv-x="1165" d="M146 0 L524 0 L524 1046 L1128 1046 L1128 1360 L146 1360 L146 0 Z M706 1883 L509 1550 L765 1550 L971 1790 L706 1883 Z " />
<glyph glyph-name="afii10053" unicode="&#x404;" horiz-adv-x="1432" d="M1097 837 L504 837 C553 980 683 1082 837 1082 C954 1082 1057 1028 1125 941 L1393 1163 C1256 1306 1057 1397 837 1397 C423 1397 87 1078 87 682 C87 287 423 -34 837 -34 C1056 -34 1255 56 1392 200 L1125 422 C1057 333 954 280 837 280 C684 280 555 380 505 523 L1099 523 L1097 837 Z " />
<glyph glyph-name="afii10054" unicode="&#x405;" horiz-adv-x="1180" d="M65 433 C65 207 214 -36 662 -36 C990 -36 1252 111 1252 391 C1252 679 1058 768 750 844 C609 874 495 909 495 983 C495 1033 526 1079 662 1079 C802 1079 831 1011 831 950 L1209 950 C1209 1224 1029 1395 697 1395 C305 1395 118 1237 118 945 C118 676 422 616 560 574 C761 509 870 506 870 392 C870 325 824 279 670 279 C515 279 441 333 441 433 L65 433 Z " />
<glyph glyph-name="afii10055" unicode="&#x406;" horiz-adv-x="632" d="M127 0 L504 0 L504 1360 L127 1360 L127 0 Z " />
<glyph glyph-name="afii10056" unicode="&#x407;" horiz-adv-x="632" d="M-32 1691 C-32 1618 29 1559 125 1559 C220 1559 282 1618 282 1691 C282 1763 221 1822 125 1822 C30 1822 -32 1763 -32 1691 L-32 1691 Z M376 1691 C376 1618 436 1559 532 1559 C627 1559 690 1618 690 1691 C690 1763 628 1822 532 1822 C438 1822 376 1763 376 1691 L376 1691 Z M127 0 L504 0 L504 1360 L127 1360 L127 0 Z " />
<glyph glyph-name="afii10057" unicode="&#x408;" horiz-adv-x="875" d="M51 0 L239 0 C532 0 757 158 757 461 L757 1360 L383 1360 L382 462 C382 366 326 315 240 315 L51 315 L51 0 Z " />
<glyph glyph-name="afii10058" unicode="&#x409;" horiz-adv-x="2157" d="M1575 566 C1645 566 1711 531 1711 442 C1711 355 1649 315 1576 315 L1404 315 L1404 566 L1575 566 Z M197 1360 L197 379 C197 310 167 280 123 280 C112 280 60 285 52 286 L-13 -17 C25 -26 73 -33 134 -33 C334 -33 574 69 574 360 L574 1046 L1027 1046 L1027 0 L1583 0 C1860 0 2088 166 2088 441 C2088 685 1907 880 1589 880 L1404 880 L1404 1360 L197 1360 Z " />
<glyph glyph-name="afii10059" unicode="&#x40a;" horiz-adv-x="2163" d="M1597 559 C1668 559 1734 528 1734 439 C1734 351 1672 315 1598 315 L1427 315 L1427 559 L1597 559 Z M525 558 L1049 558 L1049 0 L1606 0 C1883 0 2112 162 2112 438 C2112 682 1931 873 1612 873 L1427 873 L1427 1360 L1049 1360 L1049 872 L525 872 L525 1360 L148 1360 L148 0 L525 0 L525 558 Z " />
<glyph glyph-name="afii10060" unicode="&#x40b;" horiz-adv-x="1568" d="M1467 415 C1467 702 1326 921 1014 921 C902 921 824 885 776 836 L776 1046 L1153 1046 L1153 1360 L23 1360 L23 1046 L401 1046 L401 0 L776 0 L776 301 L777 302 L777 395 C777 510 838 609 942 609 C1033 609 1090 572 1090 415 L1090 0 L1467 0 L1467 415 Z " />
<glyph glyph-name="afii10061" unicode="&#x40c;" horiz-adv-x="1428" d="M965 0 L1409 0 L923 704 L1393 1360 L956 1360 L641 856 L504 856 L504 1360 L127 1360 L127 0 L504 0 L504 484 L654 484 L965 0 Z M626 1550 L882 1550 L1088 1790 L823 1883 L626 1550 Z " />
<glyph glyph-name="afii10062" unicode="&#x40e;" horiz-adv-x="1342" d="M189 -18 C227 -28 275 -34 335 -34 C489 -34 660 27 741 183 L1330 1360 L916 1360 L672 845 L428 1360 L13 1360 L468 455 L396 315 C382 286 352 279 323 279 C314 279 261 283 254 285 L189 -18 Z M784 1878 C760 1823 743 1792 675 1792 C607 1792 590 1823 564 1878 L318 1863 C329 1683 447 1548 675 1548 C902 1548 1020 1683 1032 1863 L784 1878 Z " />
<glyph glyph-name="afii10145" unicode="&#x40f;" horiz-adv-x="1524" d="M147 0 L576 0 L576 -366 L951 -366 L951 0 L1375 0 L1378 230 L1380 230 L1380 1360 L1005 1360 L1005 314 L524 314 L524 1360 L147 1360 L147 0 Z " />
<glyph glyph-name="afii10017" unicode="&#x410;" horiz-adv-x="1500" d="M746 873 L750 873 L760 823 L886 495 L609 495 L735 823 L746 873 Z M1474 0 L924 1361 L572 1361 L22 0 L420 0 L490 184 L1005 184 L1076 0 L1474 0 Z " />
<glyph glyph-name="afii10018" unicode="&#x411;" horiz-adv-x="1272" d="M675 566 C746 566 812 531 812 442 C812 355 750 315 676 315 L505 315 L505 566 L675 566 Z M1083 1046 L1083 1360 L127 1360 L127 0 L684 0 C961 0 1189 166 1189 441 C1189 685 1009 880 690 880 L505 880 L505 1046 L1083 1046 Z " />
<glyph glyph-name="afii10019" unicode="&#x412;" horiz-adv-x="1340" d="M504 556 L760 556 C830 556 889 510 889 430 C889 334 805 300 761 300 L504 300 L504 556 Z M721 1059 C768 1059 821 1012 821 944 C821 873 766 831 720 831 L504 831 L504 1059 L721 1059 Z M800 0 C1030 0 1278 105 1278 414 C1278 557 1169 674 1046 722 C1127 754 1204 864 1204 973 C1204 1225 1027 1360 743 1360 L127 1360 L127 0 L800 0 Z " />
<glyph glyph-name="afii10020" unicode="&#x413;" horiz-adv-x="1139" d="M127 0 L505 0 L505 1046 L1109 1046 L1109 1360 L127 1360 L127 0 Z " />
<glyph glyph-name="afii10021" unicode="&#x414;" horiz-adv-x="1584" d="M1008 1046 L1008 314 L558 314 C627 422 665 549 685 721 L721 1046 L1008 1046 Z M1535 314 L1382 314 L1382 1360 L378 1360 L310 760 C299 657 229 393 126 314 L40 314 L40 -307 L415 -307 L415 0 L1160 0 L1160 -307 L1535 -307 L1535 314 Z " />
<glyph glyph-name="afii10022" unicode="&#x415;" horiz-adv-x="1204" d="M127 0 L1118 0 L1118 314 L504 314 L504 516 L1020 516 L1020 829 L504 829 L504 1046 L1109 1046 L1109 1360 L127 1360 L127 0 Z " />
<glyph glyph-name="afii10024" unicode="&#x416;" horiz-adv-x="2166" d="M1271 918 L1271 1360 L894 1360 L894 918 L889 913 L510 1360 L40 1360 L646 651 L43 0 L524 0 L894 403 L894 0 L1271 0 L1271 403 L1641 0 L2122 0 L1519 650 L2126 1360 L1655 1360 L1277 911 L1271 918 Z " />
<glyph glyph-name="afii10025" unicode="&#x417;" horiz-adv-x="1257" d="M790 412 C790 312 657 280 560 280 C474 280 347 300 255 386 L26 170 C154 8 367 -34 574 -34 C858 -34 1170 92 1170 392 C1170 572 1057 656 941 694 C1036 744 1121 832 1121 969 C1121 1246 909 1399 585 1399 C392 1399 191 1353 92 1243 L279 1010 C375 1079 486 1085 560 1085 C654 1085 744 1054 744 971 C744 884 683 862 520 856 L319 856 L319 542 L488 542 C697 536 790 514 790 412 L790 412 Z " />
<glyph glyph-name="afii10026" unicode="&#x418;" horiz-adv-x="1528" d="M127 0 L454 0 L1023 732 L1023 0 L1401 0 L1401 1360 L1070 1360 L503 631 L503 1360 L127 1360 L127 0 Z " />
<glyph glyph-name="afii10027" unicode="&#x419;" horiz-adv-x="1528" d="M127 0 L454 0 L1023 732 L1023 0 L1401 0 L1401 1360 L1070 1360 L503 631 L503 1360 L127 1360 L127 0 Z M882 1846 C858 1791 841 1760 773 1760 C705 1760 688 1791 662 1846 L416 1831 C427 1651 545 1516 773 1516 C1000 1516 1118 1651 1130 1831 L882 1846 Z " />
<glyph glyph-name="afii10028" unicode="&#x41a;" horiz-adv-x="1428" d="M965 0 L1409 0 L923 704 L1393 1360 L956 1360 L641 856 L504 856 L504 1360 L127 1360 L127 0 L504 0 L504 484 L654 484 L965 0 Z " />
<glyph glyph-name="afii10029" unicode="&#x41b;" horiz-adv-x="1531" d="M1029 0 L1404 0 L1404 1360 L197 1360 L197 379 C197 310 167 280 123 280 C112 280 60 285 52 286 L-13 -17 C25 -26 73 -33 134 -33 C334 -33 574 69 574 360 L574 1046 L1029 1046 L1029 0 Z " />
<glyph glyph-name="afii10030" unicode="&#x41c;" horiz-adv-x="1687" d="M888 331 L1185 761 L1185 0 L1561 0 L1561 1360 L1233 1360 L842 819 L459 1360 L127 1360 L127 0 L504 0 L504 765 L796 331 L888 331 Z " />
<glyph glyph-name="afii10031" unicode="&#x41d;" horiz-adv-x="1520" d="M127 0 L504 0 L504 516 L1015 516 L1015 0 L1393 0 L1393 1360 L1015 1360 L1015 829 L504 829 L504 1360 L127 1360 L127 0 Z " />
<glyph glyph-name="afii10032" unicode="&#x41e;" horiz-adv-x="1673" d="M86 682 C86 287 421 -33 836 -33 C1249 -33 1586 287 1586 682 C1586 1078 1249 1395 836 1395 C421 1395 86 1078 86 682 L86 682 Z M462 681 C462 910 629 1081 836 1081 C1045 1081 1210 910 1210 681 C1210 453 1045 281 836 281 C629 281 462 453 462 681 L462 681 Z " />
<glyph glyph-name="afii10033" unicode="&#x41f;" horiz-adv-x="1520" d="M1019 0 L1394 0 L1394 1360 L127 1360 L127 0 L505 0 L505 1046 L1019 1046 L1019 0 Z " />
<glyph glyph-name="afii10034" unicode="&#x420;" horiz-adv-x="1259" d="M504 711 L504 1046 L712 1046 C792 1046 858 967 858 877 C858 784 791 711 711 711 L504 711 Z M733 397 C1025 397 1235 593 1235 877 C1235 1157 1023 1360 728 1360 L127 1360 L127 0 L504 0 L504 397 L733 397 Z " />
<glyph glyph-name="afii10035" unicode="&#x421;" horiz-adv-x="1655" d="M1559 834 C1491 1221 1127 1395 836 1395 C421 1395 86 1078 86 682 C86 287 421 -33 836 -33 C1130 -33 1489 153 1558 525 L1173 525 C1128 363 980 281 836 281 C629 281 462 453 462 681 C462 910 629 1081 836 1081 C981 1081 1130 996 1175 835 L1559 834 Z " />
<glyph glyph-name="afii10036" unicode="&#x422;" horiz-adv-x="1176" d="M401 0 L776 0 L776 1046 L1134 1046 L1134 1360 L42 1360 L42 1046 L401 1046 L401 0 Z " />
<glyph glyph-name="afii10037" unicode="&#x423;" horiz-adv-x="1342" d="M189 -18 C227 -28 275 -34 335 -34 C489 -34 660 27 741 183 L1330 1360 L916 1360 L672 845 L428 1360 L13 1360 L468 455 L396 315 C382 286 352 279 323 279 C314 279 261 283 254 285 L189 -18 Z " />
<glyph glyph-name="afii10038" unicode="&#x424;" horiz-adv-x="1715" d="M445 681 C445 838 542 907 671 935 L671 427 C542 455 445 524 445 681 L445 681 Z M1270 681 C1270 524 1174 455 1046 427 L1046 935 C1174 907 1270 838 1270 681 L1270 681 Z M1046 0 L1046 107 C1411 153 1648 342 1648 682 C1648 1022 1411 1209 1046 1255 L1046 1360 L671 1360 L671 1256 C303 1210 67 1023 67 682 C67 341 302 152 671 107 L671 0 L1046 0 Z " />
<glyph glyph-name="afii10039" unicode="&#x425;" horiz-adv-x="1495" d="M521 1360 L80 1360 L512 717 L24 0 L467 0 L747 439 L1028 0 L1471 0 L983 717 L1414 1360 L973 1360 L747 999 L521 1360 Z " />
<glyph glyph-name="afii10040" unicode="&#x426;" horiz-adv-x="1671" d="M127 0 L1200 0 L1200 -307 L1575 -307 L1575 314 L1360 314 L1360 1360 L986 1360 L986 314 L504 314 L504 1360 L127 1360 L127 0 Z " />
<glyph glyph-name="afii10041" unicode="&#x427;" horiz-adv-x="1330" d="M114 868 C114 581 260 362 571 362 C690 362 770 402 818 456 L819 0 L1185 0 L1185 1360 L808 1360 L808 887 C808 772 748 674 643 674 C553 674 490 710 490 868 L490 1360 L114 1360 L114 868 Z " />
<glyph glyph-name="afii10042" unicode="&#x428;" horiz-adv-x="2122" d="M127 0 L1994 0 L1994 1360 L1619 1360 L1619 314 L1248 314 L1248 1360 L873 1360 L873 314 L504 314 L504 1360 L127 1360 L127 0 Z " />
<glyph glyph-name="afii10043" unicode="&#x429;" horiz-adv-x="2313" d="M127 0 L1833 0 L1833 -307 L2208 -307 L2208 314 L1994 314 L1994 1360 L1619 1360 L1619 314 L1248 314 L1248 1360 L873 1360 L873 314 L504 314 L504 1360 L127 1360 L127 0 Z " />
<glyph glyph-name="afii10044" unicode="&#x42a;" horiz-adv-x="1448" d="M694 963 L694 1360 L30 1360 L30 1046 L317 1046 L317 0 L917 0 C1213 0 1425 203 1425 483 C1425 767 1215 963 923 963 L694 963 Z M900 649 C981 649 1048 576 1048 483 C1048 393 981 314 901 314 L694 314 L694 649 L900 649 Z " />
<glyph glyph-name="afii10045" unicode="&#x42b;" horiz-adv-x="1872" d="M711 649 C791 649 858 576 858 483 C858 393 792 314 712 314 L504 314 L504 649 L711 649 Z M504 963 L504 1360 L127 1360 L127 0 L728 0 C1023 0 1235 203 1235 483 C1235 767 1025 963 733 963 L504 963 Z M1716 0 L1716 1360 L1339 1360 L1339 0 L1716 0 Z " />
<glyph glyph-name="afii10046" unicode="&#x42c;" horiz-adv-x="1259" d="M504 963 L504 1360 L127 1360 L127 0 L728 0 C1023 0 1235 203 1235 483 C1235 767 1025 963 733 963 L504 963 Z M711 649 C791 649 858 576 858 483 C858 393 792 314 712 314 L504 314 L504 649 L711 649 Z " />
<glyph glyph-name="afii10047" unicode="&#x42d;" horiz-adv-x="1591" d="M491 523 L1084 523 C1034 380 905 280 752 280 C635 280 532 333 464 422 L196 200 C334 56 533 -34 752 -34 C1166 -34 1502 287 1502 682 C1502 1078 1166 1397 752 1397 C532 1397 333 1306 195 1163 L464 941 C531 1028 635 1082 752 1082 C905 1082 1036 980 1085 837 L492 837 L491 523 Z " />
<glyph glyph-name="afii10048" unicode="&#x42e;" horiz-adv-x="2276" d="M1109 681 C1109 910 1276 1081 1483 1081 C1692 1081 1857 910 1857 681 C1857 453 1692 281 1483 281 C1276 281 1109 453 1109 681 L1109 681 Z M748 539 C817 213 1119 -33 1483 -33 C1896 -33 2233 287 2233 682 C2233 1078 1896 1395 1483 1395 C1122 1395 822 1155 750 833 L504 832 L504 1360 L127 1360 L127 0 L504 0 L504 539 L748 539 Z " />
<glyph glyph-name="afii10049" unicode="&#x42f;" horiz-adv-x="1293" d="M616 733 C547 733 480 798 480 888 C480 974 542 1046 615 1046 L788 1046 L788 733 L616 733 Z M1164 0 L1164 1360 L608 1360 C330 1360 103 1164 103 888 C103 730 174 602 285 519 L35 0 L448 0 L641 419 L788 419 L788 0 L1164 0 Z " />
<glyph glyph-name="afii10065" unicode="&#x430;" horiz-adv-x="1395" d="M455 522 C455 675 553 771 683 771 C810 771 912 674 912 522 C912 366 812 270 685 270 C558 270 455 367 455 522 L455 522 Z M88 521 C88 216 299 -35 647 -35 C767 -35 867 6 939 56 L951 0 L1262 0 L1262 1043 L951 1043 L939 988 C868 1037 770 1078 648 1078 C297 1078 88 825 88 521 L88 521 Z " />
<glyph glyph-name="afii10066" unicode="&#x431;" horiz-adv-x="1337" d="M457 522 C457 675 553 773 677 773 C799 773 897 674 897 522 C897 367 801 269 677 269 C555 269 457 368 457 522 L457 522 Z M89 521 C89 216 326 -38 673 -38 C1028 -38 1264 214 1264 521 C1264 826 1068 1080 716 1080 C610 1080 524 1040 457 984 C457 1137 553 1235 677 1235 C764 1235 861 1203 960 1203 C998 1203 1036 1208 1074 1221 L1093 1506 C1068 1501 1044 1499 1018 1499 C901 1499 780 1542 675 1542 C325 1542 89 1287 89 982 L89 521 Z " />
<glyph glyph-name="afii10067" unicode="&#x432;" horiz-adv-x="1163" d="M648 410 C691 410 717 384 717 353 C717 317 690 293 650 293 L496 293 L496 410 L648 410 Z M617 756 C638 756 664 735 664 706 C664 675 638 656 616 656 L496 656 L496 756 L617 756 Z M681 0 C870 0 1083 69 1083 328 C1083 433 998 516 908 554 C966 575 1026 657 1026 736 C1026 942 880 1043 634 1043 L132 1043 L132 0 L681 0 Z " />
<glyph glyph-name="afii10068" unicode="&#x433;" horiz-adv-x="1006" d="M146 0 L515 0 L515 737 L958 737 L958 1042 L146 1042 L146 0 Z " />
<glyph glyph-name="afii10069" unicode="&#x434;" horiz-adv-x="1479" d="M963 740 L963 302 L553 302 C652 393 698 489 716 657 L725 740 L963 740 Z M1431 302 L1330 302 L1330 1043 L388 1043 L366 782 C345 536 280 395 172 302 L90 302 L90 -214 L403 -214 L458 0 L1061 0 L1117 -214 L1431 -214 L1431 302 Z " />
<glyph glyph-name="afii10070" unicode="&#x435;" horiz-adv-x="1352" d="M676 807 C770 807 834 757 868 682 L470 682 C507 758 577 807 676 807 L676 807 Z M89 533 C90 230 325 -23 674 -23 C983 -23 1178 170 1233 354 L836 354 C810 307 754 269 676 269 C582 269 492 333 456 435 L1253 435 C1258 462 1264 485 1264 533 C1264 838 1027 1090 674 1090 C324 1090 89 837 89 533 L89 533 Z " />
<glyph glyph-name="afii10072" unicode="&#x436;" horiz-adv-x="1844" d="M1365 495 L1349 509 L1794 1043 L1340 1043 L1094 751 L1100 1043 L731 1043 L736 755 L493 1043 L38 1043 L481 508 L467 495 L40 0 L497 0 L733 280 L731 0 L1100 0 L1100 277 L1333 0 L1791 0 L1365 495 Z " />
<glyph glyph-name="afii10073" unicode="&#x437;" horiz-adv-x="1139" d="M241 373 L483 373 C583 373 675 363 675 324 C675 284 589 269 489 269 C318 269 193 288 138 313 L58 59 C162 -6 361 -38 498 -38 C797 -38 1043 67 1043 320 C1043 512 923 529 837 551 C910 574 992 634 992 755 C992 1008 767 1084 498 1084 C398 1084 211 1058 123 1014 L194 761 C213 766 405 785 498 785 C578 785 624 768 624 739 C624 708 572 694 493 694 L245 694 L241 373 Z " />
<glyph glyph-name="afii10074" unicode="&#x438;" horiz-adv-x="1334" d="M132 0 L449 0 L820 440 L820 0 L1184 0 L1184 1043 L863 1043 L494 608 L494 1043 L132 1043 L132 0 Z " />
<glyph glyph-name="afii10075" unicode="&#x439;" horiz-adv-x="1334" d="M132 0 L449 0 L820 440 L820 0 L1184 0 L1184 1043 L863 1043 L494 608 L494 1043 L132 1043 L132 0 Z M780 1541 C756 1486 739 1455 671 1455 C603 1455 586 1486 560 1541 L314 1526 C325 1346 443 1211 671 1211 C898 1211 1016 1346 1028 1526 L780 1541 Z " />
<glyph glyph-name="afii10076" unicode="&#x43a;" horiz-adv-x="1258" d="M789 0 L1224 0 L859 572 L865 577 L1202 1043 L773 1043 L567 727 L498 727 L498 1043 L132 1043 L132 0 L498 0 L498 344 L591 344 L789 0 Z " />
<glyph glyph-name="afii10077" unicode="&#x43b;" horiz-adv-x="1431" d="M911 0 L1282 0 L1282 1042 L215 1042 L215 382 C215 306 183 272 129 272 C121 272 67 277 61 278 L-3 -20 C33 -29 82 -36 142 -36 C347 -36 585 70 585 363 L585 737 L911 737 L911 0 Z " />
<glyph glyph-name="afii10078" unicode="&#x43c;" horiz-adv-x="1487" d="M732 713 L452 1043 L132 1043 L132 0 L496 0 L496 468 L648 207 L818 207 L818 209 L974 464 L974 0 L1338 0 L1338 1043 L1021 1043 L732 712 L732 713 Z " />
<glyph glyph-name="afii10079" unicode="&#x43d;" horiz-adv-x="1331" d="M132 0 L496 0 L496 364 L816 364 L816 0 L1182 0 L1182 1043 L816 1043 L816 667 L496 667 L496 1043 L132 1043 L132 0 Z " />
<glyph glyph-name="afii10080" unicode="&#x43e;" horiz-adv-x="1352" d="M89 521 C89 216 325 -35 672 -35 C1027 -35 1263 214 1263 521 C1263 826 1027 1078 674 1078 C324 1078 89 825 89 521 L89 521 Z M456 522 C456 675 552 771 676 771 C799 771 896 674 896 522 C896 367 801 271 677 271 C555 271 456 368 456 522 L456 522 Z " />
<glyph glyph-name="afii10081" unicode="&#x43f;" horiz-adv-x="1367" d="M132 0 L501 0 L501 737 L849 737 L849 0 L1217 0 L1217 1043 L132 1043 L132 0 Z " />
<glyph glyph-name="afii10082" unicode="&#x440;" horiz-adv-x="1395" d="M938 521 C938 368 840 272 711 272 C583 272 481 369 481 521 C481 677 581 773 709 773 C835 773 938 675 938 521 L938 521 Z M1306 522 C1306 827 1094 1078 746 1078 C619 1078 517 1031 444 977 L426 1043 L132 1043 L132 -356 L498 -356 L498 30 C564 -8 648 -35 753 -35 C1103 -35 1306 218 1306 522 L1306 522 Z " />
<glyph glyph-name="afii10083" unicode="&#x441;" horiz-adv-x="1355" d="M455 522 C455 679 554 771 675 771 C762 771 837 722 873 638 L1247 639 C1193 891 981 1079 673 1079 C322 1079 87 824 88 521 C88 218 323 -35 673 -35 C981 -35 1198 156 1247 406 L873 406 C837 321 762 273 675 273 C554 273 455 365 455 522 L455 522 Z " />
<glyph glyph-name="afii10084" unicode="&#x442;" horiz-adv-x="1061" d="M348 0 L713 0 L713 740 L976 740 L976 1043 L84 1043 L84 740 L348 740 L348 0 Z " />
<glyph glyph-name="afii10085" unicode="&#x443;" horiz-adv-x="1250" d="M819 1036 L612 486 L591 559 L412 1037 L7 1037 L419 72 L211 -364 L608 -364 L1213 1038 L819 1036 Z " />
<glyph glyph-name="afii10086" unicode="&#x444;" horiz-adv-x="1665" d="M681 1080 C335 1075 106 822 106 521 C106 218 337 -34 681 -38 L681 -452 L1051 -452 L1051 -37 C1396 -29 1624 219 1624 521 C1624 821 1394 1072 1051 1079 L1051 1507 L681 1507 L681 1080 Z M472 522 C472 670 563 767 681 773 L681 269 C565 275 472 372 472 522 L472 522 Z M1258 522 C1258 372 1168 275 1051 269 L1051 772 C1167 765 1258 668 1258 522 L1258 522 Z " />
<glyph glyph-name="afii10087" unicode="&#x445;" horiz-adv-x="1233" d="M49 1043 L366 548 L25 0 L450 0 L614 296 L774 0 L1210 0 L868 548 L1183 1043 L754 1043 L617 786 L482 1043 L49 1043 Z " />
<glyph glyph-name="afii10088" unicode="&#x446;" horiz-adv-x="1367" d="M132 0 L983 0 L983 -196 L1351 -196 L1351 308 L1345 307 L1217 307 L1217 1042 L849 1042 L849 307 L501 307 L501 1042 L132 1042 L132 0 Z " />
<glyph glyph-name="afii10089" unicode="&#x447;" horiz-adv-x="1379" d="M128 726 C128 417 264 183 600 183 C715 183 817 227 873 316 L865 -1 L1233 -1 L1233 1042 L865 1042 L865 733 C865 603 792 490 674 490 C569 490 496 535 496 712 L496 1042 L128 1042 L128 726 Z " />
<glyph glyph-name="afii10090" unicode="&#x448;" horiz-adv-x="2034" d="M132 0 L1885 0 L1885 1043 L1516 1043 L1516 307 L1192 307 L1192 1043 L824 1043 L824 307 L501 307 L501 1043 L132 1043 L132 0 Z " />
<glyph glyph-name="afii10091" unicode="&#x449;" horiz-adv-x="2034" d="M132 0 L1649 0 L1649 -196 L2019 -196 L2019 308 L1885 307 L1885 1043 L1516 1043 L1516 307 L1192 307 L1192 1043 L824 1043 L824 307 L501 307 L501 1043 L132 1043 L132 0 Z " />
<glyph glyph-name="afii10092" unicode="&#x44a;" horiz-adv-x="1303" d="M805 425 C848 425 875 400 875 368 C875 336 846 310 804 310 L545 310 L545 425 L805 425 Z M37 1043 L37 738 L175 738 L175 0 L821 0 C1032 0 1241 121 1241 368 C1241 620 1034 733 826 733 L545 733 L545 1043 L37 1043 Z " />
<glyph glyph-name="afii10093" unicode="&#x44b;" horiz-adv-x="1844" d="M758 425 C801 425 828 400 828 368 C828 336 800 310 758 310 L498 310 L498 425 L758 425 Z M129 1043 L129 0 L775 0 C985 0 1194 121 1194 368 C1194 620 987 733 779 733 L498 733 L498 1043 L129 1043 Z M1725 1045 L1355 1045 L1355 2 L1725 2 L1725 1045 Z " />
<glyph glyph-name="afii10094" unicode="&#x44c;" horiz-adv-x="1260" d="M761 425 C804 425 831 400 831 368 C831 336 803 310 761 310 L501 310 L501 425 L761 425 Z M132 1043 L132 0 L778 0 C988 0 1197 121 1197 368 C1197 620 990 733 782 733 L501 733 L501 1043 L132 1043 Z " />
<glyph glyph-name="afii10095" unicode="&#x44d;" horiz-adv-x="1352" d="M540 375 L861 375 C821 309 754 273 678 273 C590 273 516 321 480 406 L106 406 C155 156 371 -35 680 -35 C1029 -35 1264 218 1265 521 C1266 824 1030 1079 680 1079 C371 1079 159 891 106 639 L480 638 C515 722 590 771 678 771 C755 771 823 733 862 666 L540 666 L540 375 Z " />
<glyph glyph-name="afii10096" unicode="&#x44e;" horiz-adv-x="1921" d="M1040 522 C1040 675 1137 773 1262 773 C1383 773 1482 674 1482 522 C1482 367 1384 269 1262 269 C1140 269 1040 368 1040 522 L1040 522 Z M515 367 L694 367 C759 135 970 -38 1256 -38 C1612 -38 1847 214 1847 521 C1847 826 1611 1080 1258 1080 C969 1080 758 906 693 674 L515 674 L515 1043 L146 1043 L146 0 L515 0 L515 367 Z " />
<glyph glyph-name="afii10097" unicode="&#x44f;" horiz-adv-x="1162" d="M485 0 L624 275 L648 275 L648 0 L1013 0 L1013 1043 L519 1043 C272 1043 95 880 95 658 C95 517 162 405 270 339 L69 0 L485 0 Z M536 578 C497 579 460 614 460 658 C460 698 496 740 534 740 L648 740 L648 578 L536 578 Z " />
<glyph glyph-name="afii10071" unicode="&#x451;" horiz-adv-x="1352" d="M676 807 C770 807 834 757 868 682 L470 682 C507 758 577 807 676 807 L676 807 Z M89 533 C90 230 325 -23 674 -23 C983 -23 1178 170 1233 354 L836 354 C810 307 754 269 676 269 C582 269 492 333 456 435 L1253 435 C1258 462 1264 485 1264 533 C1264 838 1027 1090 674 1090 C324 1090 89 837 89 533 L89 533 Z M321 1355 C321 1282 382 1223 478 1223 C573 1223 635 1282 635 1355 C635 1427 574 1486 478 1486 C383 1486 321 1427 321 1355 L321 1355 Z M729 1355 C729 1282 789 1223 885 1223 C980 1223 1043 1282 1043 1355 C1043 1427 981 1486 885 1486 C791 1486 729 1427 729 1355 L729 1355 Z " />
<glyph glyph-name="afii10099" unicode="&#x452;" horiz-adv-x="1349" d="M-14 1136 L132 1136 L132 0 L501 0 L501 238 L502 242 L501 263 L501 530 C501 661 573 772 693 772 C799 772 869 727 869 552 L869 0 L1238 0 L1238 536 C1238 846 1102 1080 766 1080 C627 1080 535 1028 483 962 L491 1136 L641 1136 L641 1386 L501 1386 L505 1472 L132 1472 L132 1386 L-14 1386 L-14 1136 Z " />
<glyph glyph-name="afii10100" unicode="&#x453;" horiz-adv-x="1006" d="M146 0 L515 0 L515 737 L958 737 L958 1042 L146 1042 L146 0 Z M593 1547 L396 1214 L652 1214 L858 1454 L593 1547 Z " />
<glyph glyph-name="afii10101" unicode="&#x454;" horiz-adv-x="1321" d="M814 375 L814 666 L491 666 C530 734 599 771 676 771 C763 771 838 722 874 638 L1248 639 C1194 891 982 1079 674 1079 C324 1079 88 824 89 521 C89 218 324 -35 674 -35 C982 -35 1199 156 1248 406 L874 406 C838 321 763 273 676 273 C600 273 532 309 493 375 L814 375 Z " />
<glyph glyph-name="afii10102" unicode="&#x455;" horiz-adv-x="1065" d="M57 335 C57 160 183 -36 525 -36 C817 -36 1037 78 1037 339 C1037 569 858 623 625 666 C505 686 461 692 460 731 C459 762 494 788 552 788 C609 788 636 755 639 718 L1009 717 C1009 932 849 1078 579 1078 C258 1078 94 955 94 727 C94 482 286 433 395 408 C566 366 651 365 652 314 C652 277 621 255 539 255 C470 255 424 284 418 334 L57 335 Z " />
<glyph glyph-name="afii10103" unicode="&#x456;" horiz-adv-x="655" d="M132 0 L501 0 L501 1043 L132 1043 L132 0 Z M106 1314 C106 1214 191 1131 318 1131 C449 1131 533 1212 533 1314 C533 1414 449 1497 319 1497 C190 1497 106 1414 106 1314 L106 1314 Z " />
<glyph glyph-name="afii10104" unicode="&#x457;" horiz-adv-x="632" d="M132 0 L501 0 L501 1043 L132 1043 L132 0 Z M-59 1343 C-59 1270 2 1211 98 1211 C193 1211 255 1270 255 1343 C255 1415 194 1474 98 1474 C3 1474 -59 1415 -59 1343 L-59 1343 Z M349 1343 C349 1270 409 1211 505 1211 C600 1211 663 1270 663 1343 C663 1415 601 1474 505 1474 C411 1474 349 1415 349 1343 L349 1343 Z " />
<glyph glyph-name="afii10105" unicode="&#x458;" horiz-adv-x="633" d="M132 1043 L132 31 C132 -56 93 -101 40 -101 L-75 -101 L-75 -403 L55 -403 C297 -403 502 -282 502 27 L502 1043 L132 1043 Z " />
<glyph glyph-name="afii10106" unicode="&#x459;" horiz-adv-x="2024" d="M1524 425 C1567 425 1594 400 1594 368 C1594 336 1567 310 1524 310 L1264 310 L1264 425 L1524 425 Z M895 1043 L895 1042 L215 1042 L215 382 C215 306 183 272 129 272 C121 272 67 277 61 278 L-3 -20 C33 -29 82 -36 142 -36 C347 -36 585 54 585 347 L585 737 L895 737 L895 0 L1541 0 C1752 0 1961 121 1961 368 C1961 620 1753 733 1545 733 L1264 733 L1264 1043 L895 1043 Z " />
<glyph glyph-name="afii10107" unicode="&#x45a;" horiz-adv-x="1985" d="M1485 425 C1528 425 1555 400 1555 368 C1555 336 1527 310 1485 310 L1225 310 L1225 425 L1485 425 Z M856 1043 L856 727 L501 727 L501 1043 L132 1043 L132 0 L501 0 L501 421 L856 421 L856 0 L1502 0 C1712 0 1921 121 1921 368 C1921 620 1714 733 1506 733 L1225 733 L1225 1043 L856 1043 Z " />
<glyph glyph-name="afii10108" unicode="&#x45b;" horiz-adv-x="1378" d="M-1 1152 L146 1152 L146 0 L514 0 L514 238 L515 242 L514 264 L514 530 C514 661 586 772 706 772 C812 772 882 727 882 552 L882 0 L1251 0 L1251 536 C1251 846 1116 1080 779 1080 C640 1080 549 1027 497 961 L504 1152 L654 1152 L654 1403 L514 1403 L519 1514 L146 1514 L146 1403 L-1 1403 L-1 1152 Z " />
<glyph glyph-name="afii10109" unicode="&#x45c;" horiz-adv-x="1258" d="M789 0 L1224 0 L859 572 L865 577 L1202 1043 L773 1043 L567 727 L498 727 L498 1043 L132 1043 L132 0 L498 0 L498 344 L591 344 L789 0 Z M394 1153 L650 1153 L856 1393 L591 1486 L394 1153 Z " />
<glyph glyph-name="afii10110" unicode="&#x45e;" horiz-adv-x="1250" d="M819 1036 L612 486 L591 559 L412 1037 L7 1037 L419 72 L211 -364 L608 -364 L1213 1038 L819 1036 Z M697 1541 C673 1486 656 1455 588 1455 C520 1455 503 1486 477 1541 L231 1526 C242 1346 360 1211 588 1211 C815 1211 933 1346 945 1526 L697 1541 Z " />
<glyph glyph-name="afii10193" unicode="&#x45f;" horiz-adv-x="1369" d="M133 0 L486 0 L486 -341 L862 -341 L862 0 L1219 0 L1219 1051 L850 1051 L850 315 L502 315 L502 1051 L133 1051 L133 0 Z " />
<glyph glyph-name="afii10148" unicode="&#x474;" horiz-adv-x="1521" d="M762 496 L757 496 L432 1361 L34 1361 L591 0 L928 0 L1486 1361 L1088 1361 L762 496 Z " />
<glyph glyph-name="afii10196" unicode="&#x475;" horiz-adv-x="1249" d="M816 1043 L615 480 L612 480 L412 1043 L19 1043 L451 0 L778 0 L1211 1043 L816 1043 Z " />
<glyph glyph-name="afii10050" unicode="&#x490;" horiz-adv-x="1163" d="M148 0 L525 0 L525 1046 L1129 1046 L1129 1597 L752 1597 L752 1360 L148 1360 L148 0 Z " />
<glyph glyph-name="afii10098" unicode="&#x491;" horiz-adv-x="1050" d="M146 0 L515 0 L515 737 L554 737 L1015 736 L1015 1239 L646 1239 L646 1042 L146 1042 L146 0 Z " />
<glyph glyph-name="afii10846" unicode="&#x4d9;" horiz-adv-x="1360" d="M641 264 C563 264 496 305 457 373 L824 373 C785 305 718 264 641 264 L641 264 Z M1228 522 C1227 825 992 1078 643 1078 C334 1078 138 885 84 701 L481 701 C507 748 563 786 641 786 C733 786 814 721 846 620 L63 620 C58 593 53 570 53 522 C53 217 290 -35 643 -35 C993 -35 1228 218 1228 522 L1228 522 Z " />
<glyph glyph-name="Wgrave" unicode="&#x1e80;" horiz-adv-x="2106" d="M1248 1358 L851 1358 L663 527 L658 527 L417 1361 L19 1361 L474 0 L835 0 L1050 718 L1264 0 L1625 0 L2080 1361 L1682 1361 L1442 527 L1438 527 L1248 1358 Z M735 1781 L940 1541 L1197 1541 L1001 1874 L735 1781 Z " />
<glyph glyph-name="wgrave" unicode="&#x1e81;" horiz-adv-x="1759" d="M1336 1043 L1170 480 L1166 480 L1009 1040 L747 1040 L590 480 L587 480 L421 1043 L27 1043 L386 0 L713 0 L876 491 L1043 0 L1371 0 L1731 1043 L1336 1043 Z M529 1393 L734 1153 L991 1153 L795 1486 L529 1393 Z " />
<glyph glyph-name="Wacute" unicode="&#x1e82;" horiz-adv-x="2106" d="M1248 1358 L851 1358 L663 527 L658 527 L417 1361 L19 1361 L474 0 L835 0 L1050 718 L1264 0 L1625 0 L2080 1361 L1682 1361 L1442 527 L1438 527 L1248 1358 Z M1075 1883 L878 1550 L1134 1550 L1340 1790 L1075 1883 Z " />
<glyph glyph-name="wacute" unicode="&#x1e83;" horiz-adv-x="1759" d="M1336 1043 L1170 480 L1166 480 L1009 1040 L747 1040 L590 480 L587 480 L421 1043 L27 1043 L386 0 L713 0 L876 491 L1043 0 L1371 0 L1731 1043 L1336 1043 Z M916 1486 L719 1153 L975 1153 L1181 1393 L916 1486 Z " />
<glyph glyph-name="Wdieresis" unicode="&#x1e84;" horiz-adv-x="2106" d="M1248 1358 L851 1358 L663 527 L658 527 L417 1361 L19 1361 L474 0 L835 0 L1050 718 L1264 0 L1625 0 L2080 1361 L1682 1361 L1442 527 L1438 527 L1248 1358 Z M720 1691 C720 1618 781 1559 877 1559 C972 1559 1034 1618 1034 1691 C1034 1763 973 1822 877 1822 C782 1822 720 1763 720 1691 L720 1691 Z M1128 1691 C1128 1618 1188 1559 1284 1559 C1379 1559 1442 1618 1442 1691 C1442 1763 1380 1822 1284 1822 C1190 1822 1128 1763 1128 1691 L1128 1691 Z " />
<glyph glyph-name="wdieresis" unicode="&#x1e85;" horiz-adv-x="1759" d="M1336 1043 L1170 480 L1166 480 L1009 1040 L747 1040 L590 480 L587 480 L421 1043 L27 1043 L386 0 L713 0 L876 491 L1043 0 L1371 0 L1731 1043 L1336 1043 Z M496 1294 C496 1221 557 1162 653 1162 C748 1162 810 1221 810 1294 C810 1366 749 1425 653 1425 C558 1425 496 1366 496 1294 L496 1294 Z M904 1294 C904 1221 964 1162 1060 1162 C1155 1162 1218 1221 1218 1294 C1218 1366 1156 1425 1060 1425 C966 1425 904 1366 904 1294 L904 1294 Z " />
<glyph glyph-name="Germandbls" unicode="&#x1e9e;" horiz-adv-x="1349" d="M613 0 L800 0 C1030 0 1278 105 1278 414 C1278 555 1170 671 1033 738 L1198 1072 L1198 1360 L589 1360 C305 1360 127 1225 127 973 L127 0 L504 0 L504 944 C504 1012 554 1046 602 1046 L822 1046 L693 801 L692 561 L768 561 C839 561 898 519 898 438 C898 342 813 313 769 313 L614 313 L613 0 Z " />
<glyph glyph-name="Ygrave" unicode="&#x1ef2;" horiz-adv-x="1434" d="M980 1360 L719 845 L716 845 L454 1360 L18 1360 L529 511 L529 0 L906 0 L905 513 L1419 1360 L980 1360 Z M370 1795 L575 1555 L832 1555 L636 1888 L370 1795 Z " />
<glyph glyph-name="ygrave" unicode="&#x1ef3;" horiz-adv-x="1250" d="M817 1041 L610 491 L589 564 L410 1042 L5 1042 L417 77 L209 -359 L606 -359 L1211 1043 L817 1041 Z M332 1393 L537 1153 L794 1153 L598 1486 L332 1393 Z " />
<glyph glyph-name="figuredash" unicode="&#x2012;" horiz-adv-x="1010" d="M128 342 L882 342 L882 638 L128 638 L128 342 Z " />
<glyph glyph-name="endash" unicode="&#x2013;" horiz-adv-x="1011" d="M128 342 L882 342 L882 638 L128 638 L128 342 Z " />
<glyph glyph-name="emdash" unicode="&#x2014;" horiz-adv-x="1700" d="M128 342 L1572 342 L1572 638 L128 638 L128 342 Z " />
<glyph glyph-name="quoteleft" unicode="&#x2018;" horiz-adv-x="626" d="M386 879 L566 1473 L305 1481 L64 907 L386 879 Z " />
<glyph glyph-name="quoteright" unicode="&#x2019;" horiz-adv-x="627" d="M242 1481 L62 888 L323 879 L564 1454 L242 1481 Z " />
<glyph glyph-name="quotesinglbase" unicode="&#x201a;" horiz-adv-x="627" d="M198 289 L17 -304 L279 -313 L520 262 L198 289 Z " />
<glyph glyph-name="quotedblleft" unicode="&#x201c;" horiz-adv-x="1118" d="M386 879 L566 1473 L305 1481 L64 907 L386 879 Z M860 879 L1040 1473 L778 1481 L538 907 L860 879 Z " />
<glyph glyph-name="quotedblright" unicode="&#x201d;" horiz-adv-x="1071" d="M714 1481 L534 888 L796 879 L1037 1454 L714 1481 Z M240 1481 L60 888 L322 879 L562 1454 L240 1481 Z " />
<glyph glyph-name="quotedblbase" unicode="&#x201e;" horiz-adv-x="1091" d="M199 289 L18 -304 L280 -313 L520 262 L199 289 Z M672 289 L493 -304 L754 -313 L994 262 L672 289 Z " />
<glyph glyph-name="dagger" unicode="&#x2020;" horiz-adv-x="841" d="M44 705 L244 705 L244 -279 L599 -279 L599 705 L799 705 L799 1000 L599 1000 L599 1397 L244 1397 L244 1000 L44 1000 L44 705 Z " />
<glyph glyph-name="daggerdbl" unicode="&#x2021;" horiz-adv-x="847" d="M45 705 L243 705 L243 419 L45 419 L45 124 L243 124 L243 -279 L599 -279 L599 124 L799 124 L799 419 L599 419 L599 705 L799 705 L799 1000 L599 1000 L599 1397 L243 1397 L243 1000 L45 1000 L45 705 Z " />
<glyph glyph-name="bullet" unicode="&#x2022;" horiz-adv-x="783" d="M96 490 C96 326 219 190 410 190 C603 190 727 324 727 490 C727 650 603 785 411 785 C218 785 96 650 96 490 L96 490 Z " />
<glyph glyph-name="twodotenleader" unicode="&#x2025;" horiz-adv-x="1099" d="M91 148 C91 50 167 -32 284 -32 C403 -32 479 49 479 148 C479 246 403 329 285 329 C167 329 91 246 91 148 L91 148 Z M619 148 C619 50 696 -32 812 -32 C930 -32 1007 49 1007 148 C1007 246 930 329 812 329 C695 329 619 246 619 148 L619 148 Z " />
<glyph glyph-name="ellipsis" unicode="&#x2026;" horiz-adv-x="1618" d="M92 148 C92 50 168 -32 285 -32 C404 -32 480 49 480 148 C480 246 404 329 286 329 C167 329 92 246 92 148 L92 148 Z M615 148 C615 50 692 -32 808 -32 C927 -32 1004 49 1004 148 C1004 246 927 329 809 329 C692 329 615 246 615 148 L615 148 Z M1140 148 C1140 50 1217 -32 1333 -32 C1451 -32 1528 49 1528 148 C1528 246 1451 329 1333 329 C1216 329 1140 246 1140 148 L1140 148 Z " />
<glyph glyph-name="perthousand" unicode="&#x2030;" horiz-adv-x="2645" d="M1394 -30 C1614 -30 1785 124 1785 324 C1785 526 1616 678 1397 678 C1177 678 1006 522 1006 321 C1006 124 1177 -30 1394 -30 L1394 -30 Z M1397 216 C1342 216 1310 264 1310 323 C1310 387 1342 433 1396 433 C1450 433 1483 385 1483 321 C1483 262 1451 216 1397 216 L1397 216 Z M686 -2 L1525 1358 L1190 1358 L356 -2 L686 -2 Z M463 682 C682 682 854 837 854 1037 C854 1239 685 1391 464 1391 C244 1391 74 1235 74 1035 C74 837 245 682 463 682 L463 682 Z M465 930 C410 930 378 976 378 1036 C378 1100 410 1146 464 1146 C519 1146 551 1098 551 1034 C551 975 519 930 465 930 L465 930 Z M2193 -30 C2413 -30 2584 124 2584 324 C2584 526 2415 678 2196 678 C1976 678 1805 522 1805 321 C1805 124 1976 -30 2193 -30 L2193 -30 Z M2196 216 C2141 216 2109 264 2109 323 C2109 387 2141 433 2195 433 C2249 433 2282 385 2282 321 C2282 262 2250 216 2196 216 L2196 216 Z " />
<glyph glyph-name="guilsinglleft" unicode="&#x2039;" horiz-adv-x="889" d="M768 104 L480 490 L768 875 L394 875 L108 490 L394 103 L768 104 Z " />
<glyph glyph-name="guilsinglright" unicode="&#x203a;" horiz-adv-x="889" d="M495 103 L780 490 L495 875 L119 875 L408 490 L120 104 L495 103 Z " />
<glyph glyph-name="fraction" unicode="&#x2044;" horiz-adv-x="1183" d="M264 -175 L1176 1300 L915 1436 L6 -40 L264 -175 Z " />
<glyph glyph-name="zerosuperior" unicode="&#x2070;" horiz-adv-x="947" d="M473 702 C774 702 906 919 906 1172 C906 1413 796 1642 473 1642 C182 1642 41 1428 41 1168 C41 920 167 702 473 702 L473 702 Z M473 944 C362 944 336 1070 336 1172 C336 1268 362 1400 473 1400 C580 1400 611 1268 611 1173 C611 1070 578 944 473 944 L473 944 Z " />
<glyph glyph-name="foursuperior" unicode="&#x2074;" horiz-adv-x="959" d="M389 1117 L498 1273 L495 1119 L389 1117 Z M898 876 L898 1119 L786 1119 L785 1587 L450 1617 L66 1060 L88 876 L493 877 L493 726 L786 726 L786 877 L898 876 Z " />
<glyph glyph-name="fivesuperior" unicode="&#x2075;" horiz-adv-x="847" d="M384 1374 L712 1374 L712 1617 L122 1617 L61 1176 L179 1076 L397 1075 C463 1075 493 1046 493 1006 C493 970 460 943 396 943 C336 943 315 964 315 1007 L21 1007 C22 769 190 701 413 701 C620 701 788 831 788 1013 C788 1201 664 1309 459 1309 L377 1309 L384 1374 Z " />
<glyph glyph-name="sixsuperior" unicode="&#x2076;" horiz-adv-x="855" d="M326 1022 C326 1071 374 1101 418 1101 C464 1101 507 1068 507 1022 C507 975 464 944 418 944 C374 944 326 975 326 1022 L326 1022 Z M34 1026 C34 847 174 703 416 703 C660 703 800 847 800 1026 C800 1194 655 1321 522 1321 C503 1321 488 1318 477 1313 L690 1617 L342 1617 L139 1304 C60 1182 34 1124 34 1026 L34 1026 Z " />
<glyph glyph-name="sevensuperior" unicode="&#x2077;" horiz-adv-x="794" d="M64 726 L383 726 L747 1469 L747 1617 L33 1617 L33 1374 L389 1374 L64 726 Z " />
<glyph glyph-name="eightsuperior" unicode="&#x2078;" horiz-adv-x="856" d="M348 1009 C348 1049 389 1069 438 1069 C487 1069 528 1049 528 1009 C528 964 487 945 438 945 C389 945 348 961 348 1009 L348 1009 Z M377 1357 C377 1381 399 1401 439 1401 C477 1401 496 1381 496 1357 C496 1331 477 1311 438 1311 C399 1311 377 1331 377 1357 L377 1357 Z M84 1372 C84 1300 137 1219 184 1203 C128 1189 52 1122 52 996 C52 827 182 702 440 702 C692 702 824 827 824 996 C824 1122 752 1187 692 1202 C742 1216 790 1294 790 1367 C790 1556 594 1642 439 1642 C249 1642 84 1563 84 1372 L84 1372 Z " />
<glyph glyph-name="ninesuperior" unicode="&#x2079;" horiz-adv-x="857" d="M514 1323 C514 1273 467 1243 422 1243 C376 1243 333 1275 333 1323 C333 1369 376 1400 422 1400 C467 1400 514 1369 514 1323 L514 1323 Z M806 1318 C806 1497 667 1642 425 1642 C181 1642 40 1497 40 1318 C40 1151 185 1023 319 1023 C338 1023 351 1026 363 1031 L149 726 L498 726 L702 1041 C781 1162 806 1220 806 1318 L806 1318 Z " />
<glyph glyph-name="parenleftsuperior" unicode="&#x207d;" horiz-adv-x="557" d="M250 1809 C78 1584 34 1392 34 1171 C34 957 81 743 252 534 L520 533 C415 697 329 975 329 1171 C329 1366 431 1676 519 1808 L250 1809 Z " />
<glyph glyph-name="parenrightsuperior" unicode="&#x207e;" horiz-adv-x="557" d="M35 1808 C123 1676 225 1366 225 1171 C225 975 139 697 34 533 L302 534 C473 743 520 957 520 1171 C520 1392 476 1584 304 1809 L35 1808 Z " />
<glyph glyph-name="nsuperior" unicode="&#x207f;" horiz-adv-x="984" d="M898 1064 C898 1263 808 1409 568 1409 C501 1409 427 1380 369 1341 L351 1383 L100 1383 L100 707 L416 707 L416 1025 C416 1090 440 1145 520 1145 C544 1145 580 1136 580 1057 L580 707 L898 707 L898 1064 Z " />
<glyph glyph-name="zeroinferior" unicode="&#x2080;" horiz-adv-x="947" d="M473 -238 C774 -238 906 -21 906 232 C906 473 796 702 473 702 C182 702 41 488 41 228 C41 -20 167 -238 473 -238 L473 -238 Z M473 4 C362 4 336 130 336 232 C336 328 362 460 473 460 C580 460 611 328 611 233 C611 130 578 4 473 4 L473 4 Z " />
<glyph glyph-name="oneinferior" unicode="&#x2081;" horiz-adv-x="592" d="M200 -214 L489 -214 L489 677 L255 677 L60 613 L62 410 L206 452 L200 -214 Z " />
<glyph glyph-name="twoinferior" unicode="&#x2082;" horiz-adv-x="890" d="M35 -214 L804 -214 L804 28 L609 28 C562 28 513 13 513 13 L617 86 C735 149 780 267 780 388 C780 552 665 701 408 701 C88 701 43 472 43 373 L343 373 C343 434 368 458 416 458 C463 458 484 430 484 386 C484 305 427 244 290 143 L35 -52 L35 -214 Z " />
<glyph glyph-name="threeinferior" unicode="&#x2083;" horiz-adv-x="827" d="M690 677 L51 677 L51 434 L328 446 L189 292 L189 143 L397 141 C463 141 493 106 493 66 C493 30 460 3 396 3 C336 3 315 37 315 80 L21 80 C22 -158 190 -239 413 -239 C620 -239 788 -109 788 73 C788 261 666 315 579 344 C558 354 534 357 534 357 L690 548 L690 677 Z " />
<glyph glyph-name="fourinferior" unicode="&#x2084;" horiz-adv-x="959" d="M495 179 L389 177 L498 333 L495 179 Z M786 -63 L898 -64 L898 179 L786 179 L785 647 L450 677 L66 120 L88 -64 L493 -63 L493 -214 L786 -214 L786 -63 Z " />
<glyph glyph-name="fiveinferior" unicode="&#x2085;" horiz-adv-x="847" d="M384 434 L712 434 L712 677 L122 677 L61 236 L179 136 L397 135 C463 135 493 106 493 66 C493 30 460 3 396 3 C336 3 315 24 315 67 L21 67 C22 -171 190 -239 413 -239 C620 -239 788 -109 788 73 C788 261 664 369 459 369 L377 369 L384 434 Z " />
<glyph glyph-name="sixinferior" unicode="&#x2086;" horiz-adv-x="855" d="M326 82 C326 131 374 161 418 161 C464 161 507 128 507 82 C507 35 464 4 418 4 C374 4 326 35 326 82 L326 82 Z M34 86 C34 -93 174 -237 416 -237 C660 -237 800 -93 800 86 C800 254 655 381 522 381 C503 381 488 378 477 373 L690 677 L342 677 L139 364 C60 242 34 184 34 86 L34 86 Z " />
<glyph glyph-name="seveninferior" unicode="&#x2087;" horiz-adv-x="794" d="M64 -214 L383 -214 L747 529 L747 677 L33 677 L33 434 L389 434 L64 -214 Z " />
<glyph glyph-name="eightinferior" unicode="&#x2088;" horiz-adv-x="856" d="M348 69 C348 109 389 129 438 129 C487 129 528 109 528 69 C528 24 487 5 438 5 C389 5 348 21 348 69 L348 69 Z M377 417 C377 441 399 461 439 461 C477 461 496 441 496 417 C496 391 477 371 438 371 C399 371 377 391 377 417 L377 417 Z M84 432 C84 360 137 279 184 263 C128 249 52 182 52 56 C52 -113 182 -238 440 -238 C692 -238 824 -113 824 56 C824 182 752 247 692 262 C742 276 790 354 790 427 C790 616 594 702 439 702 C249 702 84 623 84 432 L84 432 Z " />
<glyph glyph-name="nineinferior" unicode="&#x2089;" horiz-adv-x="857" d="M514 383 C514 333 467 303 422 303 C376 303 333 335 333 383 C333 429 376 460 422 460 C467 460 514 429 514 383 L514 383 Z M806 378 C806 557 667 702 425 702 C181 702 40 557 40 378 C40 211 185 83 319 83 C338 83 351 86 363 91 L149 -214 L498 -214 L702 101 C781 222 806 280 806 378 L806 378 Z " />
<glyph glyph-name="parenleftinferior" unicode="&#x208d;" horiz-adv-x="557" d="M250 869 C78 644 34 452 34 231 C34 17 81 -197 252 -406 L520 -407 C415 -243 329 35 329 231 C329 426 431 736 519 868 L250 869 Z " />
<glyph glyph-name="parenrightinferior" unicode="&#x208e;" horiz-adv-x="557" d="M21 868 C109 736 211 426 211 231 C211 35 125 -243 20 -407 L288 -406 C459 -197 506 17 506 231 C506 452 462 644 290 869 L21 868 Z " />
<glyph glyph-name="colonmonetary" unicode="&#x20a1;" horiz-adv-x="1355" d="M460 841 C460 955 513 1035 590 1070 L533 329 C488 372 460 437 460 522 L460 841 Z M680 1089 C702 1089 726 1085 749 1078 L688 273 L680 273 C655 273 631 277 608 284 L669 1089 L680 1089 Z M584 -28 C610 -32 637 -34 665 -35 L651 -221 L728 -221 L742 -32 C1021 -6 1241 182 1252 429 L894 429 C885 363 829 315 767 290 L824 1043 C861 1018 888 984 894 941 L1252 941 C1241 1155 1075 1319 850 1375 L866 1586 L788 1586 L773 1390 C746 1393 720 1395 692 1395 L707 1586 L629 1586 L614 1393 C300 1364 93 1124 93 841 L93 521 C93 270 254 54 507 -13 L492 -221 L570 -221 L584 -28 Z " />
<glyph glyph-name="franc" unicode="&#x20a3;" horiz-adv-x="1215" d="M135 0 L512 0 L512 161 L767 161 L767 372 L512 371 L512 461 L1027 461 L1027 775 L512 775 L512 1046 L1116 1046 L1116 1360 L135 1360 L135 371 L57 371 L57 162 L135 162 L135 0 Z " />
<glyph glyph-name="lira" unicode="&#x20a4;" horiz-adv-x="1214" d="M127 600 L127 417 L209 417 C180 332 133 261 72 234 L72 0 L1128 0 L1128 302 L522 302 C545 326 565 367 581 416 L902 416 L902 600 L127 600 Z M127 860 L127 677 L902 677 L902 861 L583 860 C573 900 565 936 565 976 C565 1059 599 1093 662 1093 C734 1093 755 1007 755 933 L1116 934 C1116 1285 858 1395 652 1395 C388 1395 190 1280 190 1004 C190 959 203 912 216 860 L127 860 Z " />
<glyph glyph-name="peseta" unicode="&#x20a7;" horiz-adv-x="1237" d="M638 1046 C713 1046 774 1006 774 927 C774 845 708 802 638 802 L512 802 L512 1046 L638 1046 Z M135 124 L135 0 L512 0 L512 124 L778 124 L778 415 L512 414 L512 513 L652 513 C925 513 1151 647 1151 927 C1151 1202 923 1360 647 1360 L135 1360 L135 802 L50 802 L50 513 L135 513 L135 414 L50 414 L50 124 L135 124 Z " />
<glyph glyph-name="Euro" unicode="&#x20ac;" horiz-adv-x="1221" d="M65 950 L65 740 L926 739 L926 950 L610 950 C672 1043 774 1101 890 1101 C936 1101 1020 1086 1077 1040 L1077 1368 C1045 1380 973 1394 890 1394 C586 1394 328 1208 234 950 L65 950 Z M65 613 L65 404 L237 404 C334 149 589 -33 890 -33 C962 -33 1039 -22 1077 -8 L1077 319 C1014 271 936 258 890 258 C776 258 677 314 614 404 L926 404 L926 614 L65 613 Z " />
<glyph glyph-name="afii61352" unicode="&#x2116;" horiz-adv-x="2425" d="M1841 1062 C1841 1144 1894 1175 1940 1175 C1986 1175 2039 1144 2039 1062 C2039 974 1986 945 1940 945 C1893 945 1841 974 1841 1062 L1841 1062 Z M1025 631 L458 1360 L127 1360 L127 0 L504 0 L504 732 L1074 0 L1401 0 L1401 1360 L1025 1360 L1025 631 Z M2322 611 L1557 611 L1557 366 L2322 366 L2322 611 Z M1527 1061 C1527 831 1700 707 1939 707 C2180 707 2356 831 2356 1061 C2356 1290 2181 1413 1936 1413 C1691 1413 1527 1291 1527 1061 L1527 1061 Z " />
<glyph glyph-name="trademark" unicode="&#x2122;" horiz-adv-x="1748" d="M1188 697 L1208 697 L1375 919 L1375 646 L1644 646 L1644 1395 L1398 1399 L1198 1090 L998 1399 L752 1395 L752 646 L1021 646 L1021 919 L1188 697 Z M205 646 L493 646 L493 1146 L655 1146 L655 1394 L40 1394 L40 1146 L205 1146 L205 646 Z " />
<glyph glyph-name="estimated" unicode="&#x212e;" horiz-adv-x="1351" d="M666 884 C758 884 824 815 827 654 L827 598 L507 598 L507 656 C510 816 574 884 666 884 L666 884 Z M667 133 C576 133 511 208 508 369 L508 435 L1241 435 C1247 463 1249 492 1249 520 C1249 825 1016 1078 664 1078 C315 1078 83 824 83 520 C83 217 316 -34 663 -34 C931 -34 1145 109 1226 354 L826 355 C825 352 825 350 825 347 C815 191 742 133 667 133 L667 133 Z " />
<glyph glyph-name="onethird" unicode="&#x2153;" horiz-adv-x="1009" d="M70 553 L925 553 L925 799 L70 799 L70 553 Z M352 871 L641 871 L641 1762 L407 1762 L212 1698 L214 1495 L358 1537 L352 871 Z M794 467 L155 467 L155 224 L432 236 L293 82 L293 -67 L501 -69 C567 -69 597 -104 597 -144 C597 -180 564 -207 500 -207 C440 -207 419 -173 419 -130 L125 -130 C126 -368 294 -449 517 -449 C724 -449 892 -319 892 -137 C892 51 770 105 683 134 C662 144 638 147 638 147 L794 338 L794 467 Z " />
<glyph glyph-name="arrowleft" unicode="&#x2190;" horiz-adv-x="1314" d="M781 231 L596 478 L1198 478 L1198 771 L596 772 L781 1019 L421 1019 L128 624 L421 230 L781 231 Z " />
<glyph glyph-name="arrowup" unicode="&#x2191;" horiz-adv-x="1336" d="M268 512 L513 698 L513 91 L812 91 L813 698 L1058 512 L1058 865 L663 1158 L268 865 L268 512 Z " />
<glyph glyph-name="arrowright" unicode="&#x2192;" horiz-adv-x="1314" d="M912 230 L1205 624 L912 1019 L553 1019 L736 772 L135 771 L135 478 L736 478 L553 231 L912 230 Z " />
<glyph glyph-name="arrowdown" unicode="&#x2193;" horiz-adv-x="1336" d="M268 383 L663 91 L1058 383 L1058 736 L813 550 L812 1158 L513 1158 L513 550 L268 735 L268 383 Z " />
<glyph glyph-name="uni2196" unicode="&#x2196;" horiz-adv-x="1314" d="M467 267 L510 573 L936 143 L1147 350 L722 781 L1025 824 L772 1073 L285 1002 L212 515 L467 267 Z " />
<glyph glyph-name="uni2197" unicode="&#x2197;" horiz-adv-x="1314" d="M1147 515 L1074 1002 L588 1073 L335 824 L638 781 L212 350 L424 143 L850 573 L892 267 L1147 515 Z " />
<glyph glyph-name="uni2198" unicode="&#x2198;" horiz-adv-x="1314" d="M212 701 L285 216 L772 143 L1025 394 L722 437 L1147 866 L936 1073 L510 644 L467 950 L212 701 Z " />
<glyph glyph-name="uni2199" unicode="&#x2199;" horiz-adv-x="1314" d="M892 950 L850 644 L424 1073 L212 866 L638 437 L335 394 L588 143 L1074 216 L1147 701 L892 950 Z " />
<glyph glyph-name="partialdiff" unicode="&#x2202;" horiz-adv-x="1215" d="M637 702 C679 702 706 656 718 630 C694 464 605 244 535 244 C451 244 452 362 456 411 C462 512 530 702 637 702 L637 702 Z M617 953 C205 953 27 582 86 280 C121 88 260 -16 486 -16 C916 -16 1139 385 1139 848 C1139 1196 945 1382 643 1382 C547 1382 363 1333 253 1280 L319 1007 C386 1041 479 1082 612 1082 C725 1082 776 994 756 879 C723 921 682 953 617 953 L617 953 Z " />
<glyph glyph-name="uni2206" unicode="&#x2206;" horiz-adv-x="1415" d="M1341 0 L1341 232 L886 1361 L532 1361 L78 232 L78 0 L1341 0 Z M681 774 L708 865 L710 865 L737 774 L921 301 L497 301 L681 774 Z " />
<glyph glyph-name="product" unicode="&#x220f;" horiz-adv-x="1428" d="M1278 -344 L1278 1361 L127 1361 L127 -344 L505 -344 L505 1050 L901 1050 L901 -344 L1278 -344 Z " />
<glyph glyph-name="summation" unicode="&#x2211;" horiz-adv-x="1305" d="M1247 -343 L1247 -30 L591 -30 L987 546 L620 1047 L1204 1047 L1204 1361 L70 1361 L70 1182 L565 542 L57 -164 L57 -343 L1247 -343 Z " />
<glyph glyph-name="minus" unicode="&#x2212;" horiz-adv-x="1393" d="M231 773 L231 481 L1161 481 L1161 774 L231 773 Z " />
<glyph glyph-name="uni2219" unicode="&#x2219;" horiz-adv-x="572" d="M92 488 C92 389 168 307 285 307 C404 307 480 388 480 488 C480 585 404 667 286 667 C167 667 92 585 92 488 L92 488 Z " />
<glyph glyph-name="radical" unicode="&#x221a;" horiz-adv-x="1202" d="M8 604 L183 604 L438 -75 L738 10 L1269 1561 L904 1558 L557 560 L449 898 L8 898 L8 604 Z " />
<glyph glyph-name="integral" unicode="&#x222b;" horiz-adv-x="765" d="M154 -18 C153 -104 106 -132 47 -132 C27 -132 -17 -127 -34 -116 L-140 -373 C-78 -423 40 -449 117 -449 C364 -449 510 -238 510 -25 L511 1026 C511 1085 540 1139 601 1139 C655 1139 701 1120 701 1120 L807 1376 C742 1431 626 1447 544 1447 C532 1447 520 1447 508 1446 C232 1435 158 1189 155 1011 L154 -18 Z " />
<glyph glyph-name="approxequal" unicode="&#x2248;" horiz-adv-x="1393" d="M1111 1008 C1045 965 986 937 886 937 C763 937 645 1037 499 1037 C394 1037 296 986 239 942 L281 673 C345 721 420 745 505 745 C619 745 748 644 892 644 C998 644 1099 695 1154 740 L1111 1008 Z M1111 548 C1045 504 986 477 886 477 C763 477 645 577 499 577 C394 577 296 526 239 482 L281 213 C345 261 420 285 505 285 C619 285 748 185 892 185 C998 185 1099 236 1154 280 L1111 548 Z " />
<glyph glyph-name="notequal" unicode="&#x2260;" horiz-adv-x="1393" d="M231 993 L231 700 L567 700 L515 519 L231 519 L231 227 L430 227 L374 32 L661 -25 L734 227 L1161 227 L1161 520 L819 519 L872 700 L1161 700 L1161 993 L957 993 L1014 1189 L724 1243 L651 993 L231 993 Z " />
<glyph glyph-name="lessequal" unicode="&#x2264;" horiz-adv-x="1219" d="M124 563 L122 247 L1054 -162 L1057 154 L124 563 Z M121 953 L121 731 L1056 320 L1059 661 L558 846 L1059 1047 L1056 1387 L121 953 Z " />
<glyph glyph-name="greaterequal" unicode="&#x2265;" horiz-adv-x="1212" d="M162 154 L164 -162 L1096 247 L1093 563 L162 154 Z M163 1387 L160 1047 L660 846 L160 661 L163 320 L1097 731 L1097 953 L163 1387 Z " />
<glyph glyph-name="uni2460" unicode="&#x2460;" horiz-adv-x="2123" d="M423 682 C423 1072 706 1312 1061 1312 C1420 1312 1698 1072 1698 682 C1698 293 1420 49 1061 49 C706 49 423 293 423 682 L423 682 Z M1230 1130 L996 1130 L802 1065 L803 863 L947 905 L942 239 L1230 239 L1230 1130 Z M127 682 C127 195 525 -203 1061 -203 C1595 -203 1994 195 1994 682 C1994 1172 1595 1566 1061 1566 C525 1566 127 1172 127 682 L127 682 Z " />
<glyph glyph-name="uni2461" unicode="&#x2461;" horiz-adv-x="2063" d="M409 682 C409 1062 686 1297 1031 1297 C1380 1297 1652 1062 1652 682 C1652 303 1380 65 1031 65 C686 65 409 303 409 682 L409 682 Z M1413 485 L1217 485 C1171 485 1122 470 1122 470 L1225 543 C1343 606 1389 725 1389 845 C1389 1010 1273 1159 1017 1159 C697 1159 651 930 651 830 L951 830 C951 892 977 915 1024 915 C1071 915 1092 887 1092 843 C1092 763 1035 701 899 600 L643 405 L643 243 L1413 243 L1413 485 Z M124 682 C124 208 510 -179 1031 -179 C1550 -179 1938 208 1938 682 C1938 1159 1550 1542 1031 1542 C510 1542 124 1159 124 682 L124 682 Z " />
<glyph glyph-name="uni2462" unicode="&#x2462;" horiz-adv-x="2063" d="M409 682 C409 1062 686 1297 1031 1297 C1380 1297 1652 1062 1652 682 C1652 303 1380 65 1031 65 C686 65 409 303 409 682 L409 682 Z M124 682 C124 208 510 -179 1031 -179 C1550 -179 1938 208 1938 682 C1938 1159 1550 1542 1031 1542 C510 1542 124 1159 124 682 L124 682 Z M682 887 L959 899 L820 744 L820 596 L1028 594 C1094 594 1124 559 1124 519 C1124 483 1091 456 1027 456 C967 456 945 489 945 533 L652 533 C652 295 821 213 1044 213 C1251 213 1418 343 1418 526 C1418 714 1297 768 1210 797 C1189 806 1165 809 1165 809 L1320 1000 L1320 1130 L682 1130 L682 887 Z " />
<glyph glyph-name="uni2463" unicode="&#x2463;" horiz-adv-x="2063" d="M912 629 L1021 785 L1018 631 L912 629 Z M409 682 C409 1062 686 1297 1031 1297 C1380 1297 1652 1062 1652 682 C1652 303 1380 65 1031 65 C686 65 409 303 409 682 L409 682 Z M1421 388 L1421 632 L1309 632 L1308 1100 L973 1130 L589 573 L611 389 L1016 389 L1016 239 L1309 239 L1309 389 L1421 388 Z M124 682 C124 208 510 -179 1031 -179 C1550 -179 1938 208 1938 682 C1938 1159 1550 1542 1031 1542 C510 1542 124 1159 124 682 L124 682 Z " />
<glyph glyph-name="uni2464" unicode="&#x2464;" horiz-adv-x="2063" d="M409 682 C409 1062 686 1297 1031 1297 C1380 1297 1652 1062 1652 682 C1652 303 1380 65 1031 65 C686 65 409 303 409 682 L409 682 Z M124 682 C124 208 510 -179 1031 -179 C1550 -179 1938 208 1938 682 C1938 1159 1550 1542 1031 1542 C510 1542 124 1159 124 682 L124 682 Z M1342 1120 L752 1120 L691 679 L809 580 L1027 578 C1093 578 1123 550 1123 510 C1123 474 1090 447 1026 447 C966 447 945 467 945 510 L651 510 C652 272 820 204 1044 204 C1250 204 1418 334 1418 516 C1418 704 1294 812 1089 812 L1007 812 L1014 877 L1342 877 L1342 1120 Z " />
<glyph glyph-name="uni2465" unicode="&#x2465;" horiz-adv-x="2063" d="M939 536 C939 585 986 615 1031 615 C1077 615 1119 582 1119 536 C1119 489 1077 458 1031 458 C986 458 939 489 939 536 L939 536 Z M409 682 C409 1062 686 1297 1031 1297 C1380 1297 1652 1062 1652 682 C1652 303 1380 65 1031 65 C686 65 409 303 409 682 L409 682 Z M646 540 C646 361 786 217 1029 217 C1272 217 1412 361 1412 540 C1412 708 1267 835 1134 835 C1115 835 1100 832 1090 827 L1302 1131 L954 1131 L751 818 C673 696 646 638 646 540 L646 540 Z M124 682 C124 208 510 -179 1031 -179 C1550 -179 1938 208 1938 682 C1938 1159 1550 1542 1031 1542 C510 1542 124 1159 124 682 L124 682 Z " />
<glyph glyph-name="uni2466" unicode="&#x2466;" horiz-adv-x="2063" d="M409 682 C409 1062 686 1297 1031 1297 C1380 1297 1652 1062 1652 682 C1652 303 1380 65 1031 65 C686 65 409 303 409 682 L409 682 Z M124 682 C124 208 510 -179 1031 -179 C1550 -179 1938 208 1938 682 C1938 1159 1550 1542 1031 1542 C510 1542 124 1159 124 682 L124 682 Z M1411 946 L1411 1094 L697 1094 L697 851 L1052 851 L727 203 L1047 203 L1411 946 Z " />
<glyph glyph-name="uni2467" unicode="&#x2467;" horiz-adv-x="2063" d="M409 682 C409 1062 686 1297 1031 1297 C1380 1297 1652 1062 1652 682 C1652 303 1380 65 1031 65 C686 65 409 303 409 682 L409 682 Z M942 523 C942 563 984 583 1033 583 C1082 583 1123 563 1123 523 C1123 478 1082 459 1033 459 C984 459 942 475 942 523 L942 523 Z M972 871 C972 895 993 915 1033 915 C1072 915 1091 895 1091 871 C1091 845 1072 825 1033 825 C994 825 972 845 972 871 L972 871 Z M124 682 C124 208 510 -179 1031 -179 C1550 -179 1938 208 1938 682 C1938 1159 1550 1542 1031 1542 C510 1542 124 1159 124 682 L124 682 Z M679 886 C679 814 731 733 778 717 C723 703 647 636 647 510 C647 341 777 216 1035 216 C1287 216 1419 341 1419 510 C1419 636 1346 702 1287 716 C1336 730 1385 808 1385 881 C1385 1070 1189 1156 1033 1156 C843 1156 679 1077 679 886 L679 886 Z " />
<glyph glyph-name="uni2468" unicode="&#x2468;" horiz-adv-x="2063" d="M409 682 C409 1062 686 1297 1031 1297 C1380 1297 1652 1062 1652 682 C1652 303 1380 65 1031 65 C686 65 409 303 409 682 L409 682 Z M1123 825 C1123 775 1076 745 1032 745 C985 745 942 777 942 825 C942 871 985 902 1032 902 C1077 902 1123 871 1123 825 L1123 825 Z M124 682 C124 208 510 -179 1031 -179 C1550 -179 1938 208 1938 682 C1938 1159 1550 1542 1031 1542 C510 1542 124 1159 124 682 L124 682 Z M1416 820 C1416 999 1277 1143 1034 1143 C790 1143 649 999 649 820 C649 653 794 524 928 524 C947 524 961 527 973 533 L758 228 L1107 228 L1312 542 C1390 664 1416 722 1416 820 L1416 820 Z " />
<glyph glyph-name="uni2469" unicode="&#x2469;" horiz-adv-x="2063" d="M409 682 C409 1062 686 1297 1031 1297 C1380 1297 1629 1062 1629 682 C1629 303 1380 65 1031 65 C686 65 409 303 409 682 L409 682 Z M1217 468 C1144 468 1126 544 1126 684 C1126 804 1142 902 1217 902 C1295 902 1309 777 1309 685 C1309 587 1293 468 1217 468 L1217 468 Z M964 1131 L730 1131 L597 1083 L604 881 L682 905 L676 239 L964 239 L964 1131 Z M124 682 C124 208 510 -179 1031 -179 C1550 -179 1938 208 1938 682 C1938 1159 1550 1542 1031 1542 C510 1542 124 1159 124 682 L124 682 Z M1217 241 C1500 241 1576 446 1576 684 C1576 912 1521 1127 1217 1127 C1106 1127 1047 1070 1024 1007 L1024 344 C1044 291 1103 241 1217 241 L1217 241 Z " />
<glyph glyph-name="uni246A" unicode="&#x246a;" horiz-adv-x="2028" d="M81 682 C81 195 479 -203 1014 -203 C1548 -203 1947 195 1947 682 C1947 1172 1548 1566 1014 1566 C479 1566 81 1172 81 682 L81 682 Z M376 682 C376 1072 660 1312 1014 1312 C1373 1312 1652 1072 1652 682 C1652 293 1373 49 1014 49 C660 49 376 293 376 682 L376 682 Z M1013 214 C1314 214 1445 432 1445 685 C1445 926 1336 1155 1013 1155 C721 1155 581 941 581 681 C581 432 707 214 1013 214 L1013 214 Z M1013 457 C901 457 875 582 875 684 C875 781 901 913 1013 913 C1119 913 1151 780 1151 686 C1151 582 1117 457 1013 457 L1013 457 Z " />
<glyph glyph-name="lozenge" unicode="&#x25ca;" horiz-adv-x="1138" d="M713 682 C574 445 569 422 569 420 L425 683 L570 945 L713 682 Z M509 1443 L41 683 L510 -73 L629 -74 L1095 683 L628 1443 L509 1443 Z " />
<glyph glyph-name="uni2789" unicode="&#x2789;" horiz-adv-x="2028" d="M81 682 C81 195 479 -203 1014 -203 C1548 -203 1947 195 1947 682 C1947 1172 1548 1566 1014 1566 C479 1566 81 1172 81 682 L81 682 Z M1013 214 C707 214 581 432 581 681 C581 941 721 1155 1013 1155 C1336 1155 1445 926 1445 685 C1445 432 1314 214 1013 214 L1013 214 Z M1013 457 C1117 457 1151 582 1151 686 C1151 780 1119 913 1013 913 C901 913 875 781 875 684 C875 582 901 457 1013 457 L1013 457 Z " />
<glyph glyph-name="uni278A" unicode="&#x278a;" horiz-adv-x="2123" d="M127 682 C127 195 525 -203 1061 -203 C1595 -203 1994 195 1994 682 C1994 1172 1595 1566 1061 1566 C525 1566 127 1172 127 682 L127 682 Z M947 905 L803 863 L802 1065 L996 1130 L1230 1130 L1230 239 L942 239 L947 905 Z " />
<glyph glyph-name="uni278B" unicode="&#x278b;" horiz-adv-x="2063" d="M124 682 C124 208 510 -179 1031 -179 C1550 -179 1938 208 1938 682 C1938 1159 1550 1542 1031 1542 C510 1542 124 1159 124 682 L124 682 Z M643 405 L899 600 C1035 701 1092 763 1092 843 C1092 887 1071 915 1024 915 C977 915 951 892 951 830 L651 830 C651 930 697 1159 1017 1159 C1273 1159 1389 1010 1389 845 C1389 725 1343 606 1225 543 L1122 470 C1122 470 1171 485 1217 485 L1413 485 L1413 243 L643 243 L643 405 Z " />
<glyph glyph-name="uni278C" unicode="&#x278c;" horiz-adv-x="2063" d="M124 682 C124 208 510 -179 1031 -179 C1550 -179 1938 208 1938 682 C1938 1159 1550 1542 1031 1542 C510 1542 124 1159 124 682 L124 682 Z M1320 1000 L1165 809 C1165 809 1189 806 1210 797 C1297 768 1418 714 1418 526 C1418 343 1251 213 1044 213 C821 213 652 295 652 533 L945 533 C945 489 967 456 1027 456 C1091 456 1124 483 1124 519 C1124 559 1094 594 1028 594 L820 596 L820 744 L959 899 L682 887 L682 1130 L1320 1130 L1320 1000 Z " />
<glyph glyph-name="uni278D" unicode="&#x278d;" horiz-adv-x="2063" d="M124 682 C124 208 510 -179 1031 -179 C1550 -179 1938 208 1938 682 C1938 1159 1550 1542 1031 1542 C510 1542 124 1159 124 682 L124 682 Z M1016 239 L1016 389 L611 389 L589 573 L973 1130 L1308 1100 L1309 632 L1421 632 L1421 388 L1309 389 L1309 239 L1016 239 Z M912 629 L1018 631 L1021 785 L912 629 Z " />
<glyph glyph-name="uni278E" unicode="&#x278e;" horiz-adv-x="2063" d="M124 682 C124 208 510 -179 1031 -179 C1550 -179 1938 208 1938 682 C1938 1159 1550 1542 1031 1542 C510 1542 124 1159 124 682 L124 682 Z M1007 812 L1089 812 C1294 812 1418 704 1418 516 C1418 334 1250 204 1044 204 C820 204 652 272 651 510 L945 510 C945 467 966 447 1026 447 C1090 447 1123 474 1123 510 C1123 550 1093 578 1027 578 L809 580 L691 679 L752 1120 L1342 1120 L1342 877 L1014 877 L1007 812 Z " />
<glyph glyph-name="uni278F" unicode="&#x278f;" horiz-adv-x="2063" d="M124 682 C124 208 510 -179 1031 -179 C1550 -179 1938 208 1938 682 C1938 1159 1550 1542 1031 1542 C510 1542 124 1159 124 682 L124 682 Z M646 540 C646 638 672 697 751 818 L954 1131 L1302 1131 L1090 827 C1100 832 1115 835 1134 835 C1267 835 1412 708 1412 540 C1412 361 1272 217 1029 217 C786 217 646 361 646 540 L646 540 Z M939 536 C939 489 986 458 1031 458 C1077 458 1119 489 1119 536 C1119 582 1077 615 1031 615 C986 615 939 585 939 536 L939 536 Z " />
<glyph glyph-name="uni2790" unicode="&#x2790;" horiz-adv-x="2063" d="M124 682 C124 208 510 -179 1031 -179 C1550 -179 1938 208 1938 682 C1938 1159 1550 1542 1031 1542 C510 1542 124 1159 124 682 L124 682 Z M1052 851 L697 851 L697 1094 L1411 1094 L1411 946 L1047 203 L727 203 L1052 851 Z " />
<glyph glyph-name="uni2791" unicode="&#x2791;" horiz-adv-x="2063" d="M124 682 C124 208 510 -179 1031 -179 C1550 -179 1938 208 1938 682 C1938 1159 1550 1542 1031 1542 C510 1542 124 1159 124 682 L124 682 Z M972 871 C972 845 994 825 1033 825 C1072 825 1091 845 1091 871 C1091 895 1072 915 1033 915 C993 915 972 895 972 871 L972 871 Z M942 523 C942 475 984 459 1033 459 C1082 459 1123 478 1123 523 C1123 563 1082 583 1033 583 C984 583 942 563 942 523 L942 523 Z M679 886 C679 1077 843 1156 1033 1156 C1189 1156 1385 1070 1385 881 C1385 808 1336 730 1287 716 C1346 702 1419 636 1419 510 C1419 341 1287 216 1035 216 C777 216 647 341 647 510 C647 636 723 703 778 717 C731 733 679 814 679 886 L679 886 Z " />
<glyph glyph-name="uni2792" unicode="&#x2792;" horiz-adv-x="2063" d="M124 682 C124 208 510 -179 1031 -179 C1550 -179 1938 208 1938 682 C1938 1159 1550 1542 1031 1542 C510 1542 124 1159 124 682 L124 682 Z M1416 820 C1416 722 1390 664 1312 542 L1107 228 L758 228 L973 533 C961 527 947 524 928 524 C794 524 649 653 649 820 C649 999 790 1143 1034 1143 C1277 1143 1416 999 1416 820 L1416 820 Z M1123 825 C1123 871 1077 902 1032 902 C985 902 942 871 942 825 C942 777 985 745 1032 745 C1076 745 1123 775 1123 825 L1123 825 Z " />
<glyph glyph-name="uni2793" unicode="&#x2793;" horiz-adv-x="2063" d="M124 682 C124 208 510 -179 1031 -179 C1550 -179 1938 208 1938 682 C1938 1159 1550 1542 1031 1542 C510 1542 124 1159 124 682 L124 682 Z M1314 228 C1017 228 895 440 895 682 C895 936 1031 1144 1314 1144 C1628 1144 1735 920 1735 686 C1735 439 1607 228 1314 228 L1314 228 Z M1314 463 C1417 463 1449 586 1449 687 C1449 780 1419 909 1314 909 C1206 909 1180 780 1180 685 C1180 586 1206 463 1314 463 L1314 463 Z M557 905 L413 863 L411 1065 L606 1130 L840 1130 L840 239 L551 239 L557 905 Z " />
<glyph glyph-name="commaaccent" unicode="&#xf6c3;" horiz-adv-x="817" d="M322 -83 L197 -499 L459 -507 L643 -110 L322 -83 Z " />
<glyph glyph-name="Acute" unicode="&#xf6c9;" horiz-adv-x="632" d="M504 685 C544 740 605 771 676 771 C799 771 896 674 896 522 C896 405 842 323 763 288 C650 311 555 387 504 493 L504 685 Z M836 1081 C1012 1081 1157 959 1198 783 C1116 936 962 1048 760 1073 C784 1078 810 1081 836 1081 L836 1081 Z M89 521 C89 449 102 380 127 316 L127 0 L459 0 C523 -22 595 -35 672 -35 C703 -35 733 -33 762 -29 C786 -32 811 -33 836 -33 C1249 -33 1586 287 1586 682 C1586 1078 1249 1395 836 1395 C727 1395 625 1373 532 1334 C521 1425 440 1497 319 1497 C190 1497 106 1414 106 1314 C106 1284 113 1256 127 1232 L127 916 C100 842 86 764 86 682 C86 649 88 618 93 586 C90 565 89 543 89 521 L89 521 Z " />
<glyph glyph-name="rupiah" unicode="&#xf6dd;" horiz-adv-x="1348" d="M1250 1360 L115 1360 L115 1046 L523 1046 C603 1046 671 967 671 877 C671 784 603 711 523 711 L115 711 L115 397 L494 397 L713 0 L1144 0 L847 483 C971 567 1047 706 1047 877 C1047 959 1028 1021 995 1068 L1249 1044 L1250 1360 Z " />
<glyph glyph-name="centinferior" unicode="&#xf6df;" horiz-adv-x="956" d="M336 -317 L614 -317 L614 -220 C763 -177 862 -62 886 76 L585 76 C567 31 525 8 478 8 C411 8 360 51 360 131 C360 211 410 254 478 254 C526 254 567 231 585 187 L886 188 C859 327 762 440 614 482 L614 619 L336 619 L336 481 C167 430 64 290 65 131 C66 -29 168 -169 336 -219 L336 -317 Z " />
<glyph glyph-name="centsuperior" unicode="&#xf6e0;" horiz-adv-x="956" d="M336 623 L614 623 L614 720 C763 763 862 878 886 1016 L585 1016 C567 971 525 948 478 948 C411 948 360 991 360 1071 C360 1151 410 1194 478 1194 C526 1194 567 1171 585 1127 L886 1128 C859 1267 762 1380 614 1422 L614 1559 L336 1559 L336 1421 C167 1370 64 1230 65 1071 C66 911 168 771 336 721 L336 623 Z " />
<glyph glyph-name="commainferior" unicode="&#xf6e1;" horiz-adv-x="424" d="M8 -387 L222 -387 L377 -17 L96 -17 L8 -387 Z " />
<glyph glyph-name="commasuperior" unicode="&#xf6e2;" horiz-adv-x="424" d="M8 553 L222 553 L377 923 L96 923 L8 553 Z " />
<glyph glyph-name="dollarinferior" unicode="&#xf6e3;" horiz-adv-x="958" d="M327 -367 L612 -367 L612 -227 C773 -196 894 -106 894 46 C894 234 769 291 542 353 C459 372 393 387 393 415 C393 436 403 460 473 460 C548 460 563 418 563 401 L868 401 C868 562 779 664 611 693 L611 836 L327 836 L327 685 C169 649 89 555 89 394 C89 218 304 174 388 143 C460 118 580 101 580 59 C580 31 565 7 479 7 C379 7 353 41 353 80 L50 80 C50 -47 116 -182 327 -225 L327 -367 Z " />
<glyph glyph-name="dollarsuperior" unicode="&#xf6e4;" horiz-adv-x="958" d="M327 573 L612 573 L612 713 C773 744 894 834 894 986 C894 1174 769 1231 542 1293 C459 1312 393 1327 393 1355 C393 1376 403 1400 473 1400 C548 1400 563 1358 563 1341 L868 1341 C868 1502 779 1604 611 1633 L611 1776 L327 1776 L327 1625 C169 1589 89 1495 89 1334 C89 1158 304 1114 388 1083 C460 1058 580 1041 580 999 C580 971 565 947 479 947 C379 947 353 981 353 1020 L50 1020 C50 893 116 758 327 715 L327 573 Z " />
<glyph glyph-name="hypheninferior" unicode="&#xf6e5;" horiz-adv-x="606" d="M93 -10 L513 -10 L513 227 L93 227 L93 -10 Z " />
<glyph glyph-name="hyphensuperior" unicode="&#xf6e6;" horiz-adv-x="606" d="M93 930 L513 930 L513 1167 L93 1167 L93 930 Z " />
<glyph glyph-name="periodinferior" unicode="&#xf6e7;" horiz-adv-x="423" d="M60 -100 C60 -174 120 -239 210 -239 C303 -239 364 -176 364 -100 C364 -24 303 40 211 40 C119 40 60 -24 60 -100 L60 -100 Z " />
<glyph glyph-name="periodsuperior" unicode="&#xf6e8;" horiz-adv-x="423" d="M60 840 C60 766 120 701 210 701 C303 701 364 764 364 840 C364 916 303 980 211 980 C119 980 60 916 60 840 L60 840 Z " />
<glyph glyph-name="asuperior" unicode="&#xf6e9;" horiz-adv-x="981" d="M365 1046 C365 1117 410 1145 472 1145 C533 1145 581 1112 581 1046 C581 976 534 945 474 945 C414 945 365 974 365 1046 L365 1046 Z M49 1045 C49 845 182 683 433 683 C504 683 564 713 611 750 L629 707 L882 707 L882 1383 L629 1383 L611 1341 C565 1378 505 1407 434 1407 C181 1407 49 1244 49 1045 L49 1045 Z " />
<glyph glyph-name="bsuperior" unicode="&#xf6ea;" horiz-adv-x="981" d="M619 1046 C619 974 569 945 509 945 C448 945 403 976 403 1046 C403 1112 450 1145 511 1145 C572 1145 619 1117 619 1046 L619 1046 Z M935 1045 C935 1244 802 1407 549 1407 C503 1407 462 1394 426 1376 L426 1608 L101 1608 L101 707 L355 707 L372 749 C419 712 479 683 550 683 C802 683 935 845 935 1045 L935 1045 Z " />
<glyph glyph-name="dsuperior" unicode="&#xf6eb;" horiz-adv-x="994" d="M380 1046 C380 1117 426 1145 488 1145 C549 1145 596 1112 596 1046 C596 976 550 945 490 945 C430 945 380 974 380 1046 L380 1046 Z M64 1045 C64 845 198 683 449 683 C520 683 580 712 626 749 L644 707 L898 707 L898 1608 L573 1608 L573 1376 C537 1395 495 1407 449 1407 C197 1407 64 1244 64 1045 L64 1045 Z " />
<glyph glyph-name="esuperior" unicode="&#xf6ec;" horiz-adv-x="957" d="M478 1214 C533 1214 564 1170 574 1119 L383 1119 C395 1178 425 1214 478 1214 L478 1214 Z M550 881 C538 874 499 871 478 871 C431 871 404 909 390 954 L871 954 C881 977 895 989 895 1045 L894 1046 C893 1243 731 1409 477 1409 C223 1409 62 1241 62 1045 C62 849 224 682 477 682 C588 682 678 708 713 724 L550 881 Z " />
<glyph glyph-name="isuperior" unicode="&#xf6ed;" horiz-adv-x="513" d="M98 707 L416 707 L416 1325 L98 1325 L98 707 Z M78 1544 C78 1463 148 1394 256 1394 C366 1394 436 1462 436 1544 C436 1626 366 1694 256 1694 C148 1694 78 1626 78 1544 L78 1544 Z " />
<glyph glyph-name="lsuperior" unicode="&#xf6ee;" horiz-adv-x="513" d="M100 707 L416 707 L416 1608 L100 1608 L100 707 Z " />
</font>
</svg>
